Всегда рабочее зеркало без VPN и Proxy просто перед .vidak.icu напиши любое слово или цифру, Пример http://hkwl.vidak.icu

MVO

Лицензия

1 сезон

1

1 сезон

iTunes

1 сезон

13

1 сезон

Deluxe

pack

Рекомендуем

Repack

30

ВАЖНО

RePack

MK11

RePack

jed

RePack

fifa19

RePack

RDR2

RePack

NEED FOR SPEED™ PAYBACK

Кинопоиск HD

6 сезон

 Острые козырьки 6 сезон

Все сериалы

все сериалы на PB.wtf

RePack

FAR CRY 5
  
Magnet ссылка

По законам военного времени / Сезон: 1-3 / Серии: 1-28 из 28 (Максим Мехеда, Евгений Серов) [2015-2019, Военный, драма, исторический, криминал, WEB-DL 1080p] pb.wtf

По законам военного времени через торрент pb.wtf

Размер: 53.01 GB | Добавлен: 2 года 2 мес. назад | Торрент скачан:121 раз
Смотреть онлайн По законам военного времени | Скачать    Ребята, помогите собрать деньги на оплату серверов!!!

26-04-2020 14:27 По законам военного времени Скачать торрент  

По законам военного времени
Год выпуска: 2015-2019
Страна: Россия
Студия: StarMedia
Жанр: Военный, драма, исторический, криминал
Продолжительность: ~ 00:51:00
Перевод: Не требуется
Субтитры: отсутствуют

Режиссер: Максим Мехеда, Евгений Серов



В ролях: Евгений Воловенко, Екатерина Климова, Максим Дрозд, Сергей Сосновский, Валерий Сковронский, Игорь Петрусенко, Андрей Саминин, Пётр Крылов (III), Виталий Салий, Игорь Рубашкин, Валерий Шалыга, Михаил Жонин, Александра Сизоненко, Сергей Деньга, Алексей Шутов, Екатерина Соломатина, Павел Стонт, Дмитрий Сарансков, Светлана Зельбет, Андрей Клименков, Станислав Боклан, Виктория Литвиненко, Анатолий Зиновенко, Александр Панкратов-Чёрный

Описание:
1 сезон: Июль 1941 года. Фашисты рвутся к Киеву. Обстановка в городе накаляется с каждым днем, что добавляет работы лучшему следователю киевской военной прокуратуры Ивану Рокотову. Из Москвы неожиданно прибывает заместитель главного военного прокурора РККА Николай Мирский. Он создает особый отдел в военной прокуратуре фронта, в который входят Рокотов и бывший следователь Днепропетровского УГРО Светлана Елагина. Рокотову и Елагиной придется расследовать особо важные дела, действуя как на передовой, в Киевском укрепрайоне, так и в самом городе, где активизировавшийся преступный мир начинает объединяться с просачивающимися в город немецкими диверсантами. Да и некоторые представители Советской власти не прочь нагреть руки на страданиях народа.
2 сезон: Осень 1941 года. Чудом вырвавшиеся из киевского котла, следователи военной прокуратуры Рокотов, Мирский и Елагина прибывают в Харьков, где уже полным ходом идет эвакуация. У них на руках важные сведения о деятельности немецкой шпионской организации, которые нужно срочно передать в центр. Но неожиданный приказ руководства вынуждает их задержаться в Харькове. Ведь вместе с эвакуируемыми предприятиями, под видом беженцев, на восток движутся группы немецких диверсантов, цель которых – диверсии и саботажи на военных заводах, расположенных на Урале и в Западной Сибири. Пытаясь раскрыть каналы переправки лазутчиков в советский тыл, Рокотов с Елагиной узнают, что действующая в Харькове организация напрямую связана с киевской группой, раскрытой ими за несколько часов до сдачи города. А куратор обеих этих группировок занимает высокий пост в Главной военной прокуратуре в Москве.
3 сезон:1944 год. Одесса, освобожденная от немецко-румынской оккупации, начинает жить мирной жизнью. Однако по сведениям военной разведки в городе продолжает действовать агентурная сеть Абвера, из числа завербованного местного населения и прибывших профессионально обученных диверсантов. В Москве формируется специальная оперативная группа из следователей СМЕРШа и военной прокуратуры, которая направляется в Одессу для усиления местных органов власти и милиции. В состав спецподразделения, руководимого капитаном СМЕРШа Виктором Звягиновым, входят следователи военной прокуратуры Светлана Елагина и Иван Рокотов, потерявшие друг друга во время отступления из Харькова в 1941 году и вновь встретившиеся после долгой разлуки...

Качество: WEB-DL 1080p
Формат: MKV

Видео: 1920х1080 (16:9), 25 fps, AVC MPEG-4 (x264), [email protected] ~ 5000 kbps avg, 0.099 bit/pixel
Аудио: 48.0 kHz, AC3 Dolby Digital, 2/0 (L,R) ch, ~ 192 kbps
скриншот  скриншот  скриншот  скриншот  скриншот  

Общее
Уникальный идентификатор : 223145359385047493560359969983670569170 (0xA7E03BA334A916B08BD86C2A1A5CC8D2)
Полное имя : C:Po.zakonam.voennogo.vremeni.2015-2019.WEB-DL.(1080p).Nikolspup\Po.zakonam.voennogo.vremeni.(01.seriya.iz.12).2015.WEB-DL.(1080p).Nikolspup.mkv
Формат : Matroska
Версия формата : Version 4
Размер файла : 1,78 Гбайт
Продолжительность : 47 м. 58 с.
Общий поток : 5305 Кбит/сек
Дата кодирования : UTC 2018-04-30 12:06:18
Программа кодирования : mkvmerge v7.8.0 ('River Man') 32bit built on Mar 27 2015 16:18:02
Библиотека кодирования : libebml v1.3.1 + libmatroska v1.4.2

Видео
Идентификатор : 1
Формат : AVC
Формат/Информация : Advanced Video Codec
Профиль формата : [email protected]
Настройки формата : CABAC / 4 Ref Frames
Параметр CABAC формата : Да
Параметр RefFrames формата : 4 кадра
Идентификатор кодека : V_MPEG4/ISO/AVC
Продолжительность : 47 м. 58 с.
Битрейт : 5008 Кбит/сек
Ширина : 1920 пикселей
Высота : 1080 пикселей
Соотношение сторон : 16:9
Режим частоты кадров : Постоянный
Частота кадров : 25,000 кадров/сек
Цветовое пространство : YUV
Субдискретизация насыщенности : 4:2:0
Битовая глубина : 8 бит
Тип развёртки : Прогрессивная
Бит/(Пиксели*Кадры) : 0.097
Размер потока : 1,68 Гбайт (94%)
Default : Да
Forced : Нет

Аудио
Идентификатор : 2
Формат : AC-3
Формат/Информация : Audio Coding 3
Коммерческое название : Dolby Digital
Идентификатор кодека : A_AC3
Продолжительность : 47 м. 58 с.
Вид битрейта : Постоянный
Битрейт : 192 Кбит/сек
Каналы : 2 канала
ChannelLayout : L R
Частота : 48,0 КГц
Частота кадров : 31,250 кадров/сек (1536 SPF)
Битовая глубина : 16 бит
Метод сжатия : С потерями
Размер потока : 65,9 Мбайт (4%)
ServiceKind/String : Complete Main
Default : Да
Forced : Нет

pb.wtf



Скачать По законам военного времени через торрент https://i4.imageban.ru/out/2018/05/05/f8a1bb59677e7924f0533e02730e990d.jpg Скачать, смотреть онлайн По законам военного времени бесплантно в хорошем качестве Описание: 1 сезон: Июль 1941 года. Фашисты рвутся к Киеву. Обстановка в городе накаляется с каждым днем, что добавляет работы лучшему ... 10 10 9
Торрент: Зарегистрирован [2020-04-26 14:27] · скачан: 121 раз
Статус: √ проверено
Размер: 53.01 GB
Как cкачать? Как скачать По законам военного времени через торрент | UTorrent

28-11-2019 20:33  

Отключить всю рекламу на сайте

10-05-2022 15:11 По законам военного времени Скачать торрент  

bober100,
Доброго времени суток!
Этот сериал (данного качества) уже на многих трекерах раздают в полном объеме!
Вы будете добавлять 4 и 5 сезоны?
Спасибо!pb.wtf



    Дорогой пользователь! Огромная просьба, поблагодарите релизера, оцените раздачу и оставьте свои комментарий, если Вы скачали По законам военного времени через торрент бесплатно!
    Комментировать посты могут только пользователи прошедшие не сложную регистрацию
    Показать сообщения:    

    По законам военного времени через торрент
    Скачать бесплатно По законам военного времени
    По законам военного времени скачать торрент
    По законам военного времени смотреть онлайн
    Cкачать фильм По законам военного времени бесплатно
    По законам военного времени скачать торрент в хорошем качестве
    По законам военного времени смотреть онлайн бесплатно в хорошем качестве


    Вы не можете начинать темы
    Вы не можете отвечать на сообщения
    Вы не можете редактировать свои сообщения
    Вы не можете удалять свои сообщения
    Вы не можете голосовать в опросах
    Вы не можете прикреплять файлы к сообщениям
    Вы можете скачивать файлы