2 сезон

iTunes

MVO

1

2 сезон

iTunes

iTunes

1 сезон

RePack

30

Новинка

ВАЖНО

ИГРА 18+

pack

RePack

MK11
pack

Легкие деньги

RePack

jed

RePack

fifa19

RePack

RDR2

RePack

NEED FOR SPEED™ PAYBACK

4 сезон

9 сезон

Бесстыжие 9 сезон

Все сериалы

все сериалы на PB.wtf

RePack

FAR CRY 5

Anonymous, добрый день, мы не успеваем собрать деньги на оплату серверов за декабрь и январь, помогите нам пожалуйста в это трудное время. В качестве благодарности мы отключим Вам всю рекламу на сайте (укажите свой ник в строку Ваше имя)!

×
  
Magnet ссылка

Звездные войны: Эпизод 8 - Последние Джедаи / Star Wars: Episode VIII - The Last Jedi (Райан Джонсон) [2017 г., Фантастика, фэнтези, боевик, приключения, BDRip 720p / 60 FPS, Дубляж] от R.G. HD-Films pb.wtf

Звездные войны: Эпизод 8 - Последние Джедаи через торрент pb.wtf

Размер: 4.97 GB | Добавлен: 8 мес. назад | Торрент скачан:40 раз
Скачать  

26-04-2020 15:37 Звездные войны: Эпизод 8 - Последние Джедаи Скачать торрент  

Звездные войны: Эпизод 8 - Последние Джедаи / Star Wars: Episode VIII - The Last Jedi
Год выпуска: : 2017
Страна: : США
Жанр: : Фантастика, фэнтези, боевик, приключения
Продолжительность: 02:31:52
Перевод: Дубляж
Субтитры: Russian, English

Режиссер: Райан Джонсон

Бюджет: $317 000 000
Премьера в мире: 14 декабря 2017

rating

В ролях: Марк Хэмилл, Кэрри Фишер, Адам Драйвер, Дэйзи Ридли, Джон Бойега, Оскар Айзек, Энди Серкис, Лупита Нионго, Донал Глисон, Энтони Дэниелс

Сюжет фильма: Новая история о противостоянии света и тьмы, добра и зла начинается после гибели Хана Соло. В Галактике, где Первый Орден и Сопротивление яростно сражаются друг с другом в войне, героиня Рей пробудила в себе Силу. Но что произойдет, когда она встретится с единственным оставшимся в живых рыцарем-джедаем — Люком Скайуокером? Кайло Рен перешел на Темную сторону Силы и убил собственного отца, заняв высокую позицию в Первом Ордене. Но куда приведут его неуемные амбиции, подаренные по наследству грозным дедом Дартом Вейдером? Ситуация обострится еще больше, когда мать Кайло, лидер Сопротивления Лея, вместе с По, Финном и BB-8 приступит к новой миссии.

Качество видео: BDRip 720p / 60 FPS
Формат: MKV
Видео кодек: H.264
Аудио кодек: AC3
Видео : x264, 1280 x 536 ( 2,40:1 ), 4301 kbps, 60,000 fps, ( 0.104 bpp)
Аудио : Русский, AC-3, 48.0 KHz, 6 ch, 384 Kbps ( Dub Blu-ray EUR )
Релиз от:

скриншот   скриншот   скриншот   скриншот   скриншот   скриншот  Автор рипа: slaventi-69
x264 [info]: frame I:3468 Avg QP:15.20 size: 78282
x264 [info]: frame P:132968 Avg QP:16.34 size: 20098
x264 [info]: frame B:409712 Avg QP:18.89 size: 4760
x264 [info]: consecutive B-frames: 2.7% 4.2% 8.9% 13.2% 62.2% 8.8%


Общее
Уникальный идентификатор : 29411280281062983409651158581776662378 (0x16206812FACA766B644C5393A462BF6A)
Полное имя : F:\Star.Wars.Episode.VIII.The.Last.Jedi.(2017).BDRip.720p.(60 Fps).mkv
Формат : Matroska
Версия формата : Version 4
Размер файла : 4,97 Гбайт
Продолжительность : 2 ч. 31 м.
Общий поток : 4689 Кбит/сек
Название фильма : Звездные войны: Эпизод 8 - Последние Джедаи / Star Wars: Episode VIII - The Last Jedi (2017) BDRip 720p (60 Fps)
Дата кодирования : UTC 2020-04-25 07:04:04
Программа кодирования : mkvmerge v42.0.0 ('Overtime') 64-bit
Библиотека кодирования : libebml v1.3.10 + libmatroska v1.5.2

Видео
Идентификатор : 1
Формат : AVC
Формат/Информация : Advanced Video Codec
Профиль формата : High@L4.1
Настройки формата : CABAC / 8 Ref Frames
Параметр CABAC формата : Да
Параметр RefFrames формата : 8 кадров
Идентификатор кодека : V_MPEG4/ISO/AVC
Продолжительность : 2 ч. 31 м.
Битрейт : 4301 Кбит/сек
Ширина : 1280 пикселей
Высота : 536 пикселей
Соотношение сторон : 2,40:1
Режим частоты кадров : Постоянный
Частота кадров : 60,000 кадров/сек
Цветовое пространство : YUV
Субдискретизация насыщенности : 4:2:0
Битовая глубина : 8 бит
Тип развёртки : Прогрессивная
Бит/(Пиксели*Кадры) : 0.104
Размер потока : 4,56 Гбайт (92%)
Заголовок : slaventi-69 ( R.G. HD-Films | 60 fps )
Библиотека кодирования : x264 core 130 r2273 b3065e6
Настройки программы : cabac=1 / ref=8 / deblock=1:-1:-1 / analyse=0x3:0x133 / me=umh / subme=9 / psy=1 / psy_rd=1.00:0.00 / mixed_ref=1 / me_range=26 / chroma_me=1 / trellis=2 / 8x8dct=1 / cqm=0 / deadzone=21,11 / fast_pskip=0 / chroma_qp_offset=-2 / threads=6 / lookahead_threads=1 / sliced_threads=0 / nr=0 / decimate=1 / interlaced=0 / bluray_compat=0 / constrained_intra=0 / bframes=5 / b_pyramid=2 / b_adapt=2 / b_bias=0 / direct=3 / weightb=1 / open_gop=0 / weightp=2 / keyint=250 / keyint_min=25 / scenecut=40 / intra_refresh=0 / rc=crf / mbtree=0 / crf=16.5 / qcomp=0.60 / qpmin=0 / qpmax=69 / qpstep=4 / ip_ratio=1.40 / pb_ratio=1.30 / aq=1:1.00
Язык : English
Default : Да
Forced : Нет

Аудио
Идентификатор : 2
Формат : AC-3
Формат/Информация : Audio Coding 3
Коммерческое название : Dolby Digital
Идентификатор кодека : A_AC3
Продолжительность : 2 ч. 31 м.
Вид битрейта : Постоянный
Битрейт : 384 Кбит/сек
Каналы : 6 каналов
Channel layout : L R C LFE Ls Rs
Частота : 48,0 КГц
Частота кадров : 31,250 кадров/сек (1536 SPF)
Битовая глубина : 16 бит
Метод сжатия : С потерями
Размер потока : 417 Мбайт (8%)
Заголовок : Dub Blu-ray EUR
Язык : Russian
ServiceKind/String : Complete Main
Default : Да
Forced : Нет

Текст #1
Идентификатор : 3
Формат : UTF-8
Идентификатор кодека : S_TEXT/UTF8
Идентификатор кодека/Информация : UTF-8 Plain Text
Продолжительность : 1 м. 9 с.
Битрейт : 92 бит/сек
ElementCount : 14
Размер потока : 813 байт (0%)
Заголовок : forced
Язык : Russian
Default : Нет
Forced : Нет

Текст #2
Идентификатор : 4
Формат : UTF-8
Идентификатор кодека : S_TEXT/UTF8
Идентификатор кодека/Информация : UTF-8 Plain Text
Продолжительность : 2 ч. 22 м.
Битрейт : 70 бит/сек
ElementCount : 1387
Размер потока : 73,3 Кбайт (0%)
Заголовок : iTunes
Язык : Russian
Default : Нет
Forced : Нет

Текст #3
Идентификатор : 5
Формат : UTF-8
Идентификатор кодека : S_TEXT/UTF8
Идентификатор кодека/Информация : UTF-8 Plain Text
Продолжительность : 1 м. 9 с.
Битрейт : 62 бит/сек
ElementCount : 13
Размер потока : 545 байт (0%)
Заголовок : Forced
Язык : English
Default : Нет
Forced : Нет

Текст #4
Идентификатор : 6
Формат : UTF-8
Идентификатор кодека : S_TEXT/UTF8
Идентификатор кодека/Информация : UTF-8 Plain Text
Продолжительность : 2 ч. 20 м.
Битрейт : 39 бит/сек
ElementCount : 1569
Размер потока : 40,4 Кбайт (0%)
Заголовок : Full
Язык : English
Default : Нет
Forced : Нет

Текст #5
Идентификатор : 7
Формат : UTF-8
Идентификатор кодека : S_TEXT/UTF8
Идентификатор кодека/Информация : UTF-8 Plain Text
Продолжительность : 2 ч. 23 м.
Битрейт : 45 бит/сек
ElementCount : 1897
Размер потока : 47,9 Кбайт (0%)
Заголовок : SDH
Язык : English
Default : Нет
Forced : Нет

Текст #6
Идентификатор : 8
Формат : UTF-8
Идентификатор кодека : S_TEXT/UTF8
Идентификатор кодека/Информация : UTF-8 Plain Text
Продолжительность : 2 ч. 23 м.
Битрейт : 85 бит/сек
ElementCount : 1897
Размер потока : 89,5 Кбайт (0%)
Заголовок : SDH-Colored
Язык : English
Default : Нет
Forced : Нет

Меню
00:00:00.000 : en:Chapter 01
00:00:18.643 : en:Chapter 02
00:01:45.730 : en:Chapter 03
00:03:11.816 : en:Chapter 04
00:07:43.296 : en:Chapter 05
00:12:48.434 : en:Chapter 06
00:13:44.573 : en:Chapter 07
00:16:29.279 : en:Chapter 08
00:19:59.281 : en:Chapter 09
00:22:51.369 : en:Chapter 10
00:26:04.980 : en:Chapter 11
00:27:22.849 : en:Chapter 12
00:31:24.757 : en:Chapter 13
00:32:54.681 : en:Chapter 14
00:35:27.667 : en:Chapter 15
00:38:11.497 : en:Chapter 16
00:41:53.427 : en:Chapter 17
00:44:29.541 : en:Chapter 18
00:46:51.475 : en:Chapter 19
00:51:41.932 : en:Chapter 20
00:53:50.060 : en:Chapter 21
00:55:41.504 : en:Chapter 22
00:57:39.581 : en:Chapter 23
00:59:16.636 : en:Chapter 24
01:02:05.847 : en:Chapter 25
01:03:07.700 : en:Chapter 26
01:05:41.729 : en:Chapter 27
01:07:03.477 : en:Chapter 28
01:10:25.721 : en:Chapter 29
01:13:30.322 : en:Chapter 30
01:17:43.450 : en:Chapter 31
01:20:53.056 : en:Chapter 32
01:24:17.969 : en:Chapter 33
01:26:23.219 : en:Chapter 34
01:27:59.524 : en:Chapter 35
01:30:49.360 : en:Chapter 36
01:32:54.568 : en:Chapter 37
01:35:53.706 : en:Chapter 38
01:37:10.616 : en:Chapter 39
01:39:12.863 : en:Chapter 40
01:42:07.663 : en:Chapter 41
01:45:03.714 : en:Chapter 42
01:49:35.694 : en:Chapter 43
01:52:20.608 : en:Chapter 44
01:56:04.749 : en:Chapter 45
01:58:52.083 : en:Chapter 46
02:03:11.133 : en:Chapter 47
02:06:39.758 : en:Chapter 48
02:11:43.604 : en:Chapter 49
02:15:12.103 : en:Chapter 50
02:20:16.699 : en:Chapter 51
02:23:39.694 : en:Chapter 52
02:31:51.352 : en:Chapter 53

Просьба к переливающим на другие сайты, в оформлении указывайте пожалуйста авторство группы R.G. HD-Films pb.wtf



Скачать Звездные войны: Эпизод 8 - Последние Джедаи через торрент http://a.radikal.ru/a06/2001/59/f6efbe6ed7cd.png Скачать фильм Звездные войны: Эпизод 8 - Последние Джедаи через торрент бесплантно в хорошем качестве В ролях: Марк Хэмилл, Кэрри Фишер, Адам Драйвер, Дэйзи Ридли, Джон Бойега, Оскар Айзек, Энди Серкис, Лупита Нионго, Донал Глисон, Энтони ... 10 10 4
Торрент: Зарегистрирован [2020-04-26 15:37] · скачан: 40 раз
Статус: √ проверено
Размер: 4.97 GB
Как cкачать? Как скачать Звездные войны: Эпизод 8 - Последние Джедаи через торрент | UTorrent

28-11-2019 20:33  

Отключить всю рекламу на сайте

    Дорогой пользователь! Огромная просьба, поблагодарите релизера, оцените раздачу и оставьте свои комментарий, если Вы скачали Звездные войны: Эпизод 8 - Последние Джедаи через торрент бесплатно! Внесите свою лепту в развитие PiratBit!
    Комментировать посты могут только пользователи прошедшие не сложную регистрацию
    Показать сообщения:    

    Звездные войны: Эпизод 8 - Последние Джедаи через торрент
    Скачать бесплатно Звездные войны: Эпизод 8 - Последние Джедаи
    Звездные войны: Эпизод 8 - Последние Джедаи скачать торрент
    Звездные войны: Эпизод 8 - Последние Джедаи смотреть онлайн
    Cкачать фильм Звездные войны: Эпизод 8 - Последние Джедаи бесплатно
    Звездные войны: Эпизод 8 - Последние Джедаи скачать торрент в хорошем качестве
    Звездные войны: Эпизод 8 - Последние Джедаи смотреть онлайн бесплатно в хорошем качестве


    Вы не можете начинать темы
    Вы не можете отвечать на сообщения
    Вы не можете редактировать свои сообщения
    Вы не можете удалять свои сообщения
    Вы не можете голосовать в опросах
    Вы не можете прикреплять файлы к сообщениям
    Вы можете скачивать файлы