Всегда рабочее зеркало без VPN и Proxy просто перед .vidak.icu напиши любое слово или цифру, Пример http://z4rt.vidak.icu

MVO

2 сезон

1 сезон

1

1 сезон

iTunes

2 сезон

13

1 сезон

Deluxe

pack

Рекомендуем

Пиратка

30

ВАЖНО

RePack

MK11

RePack

jed

RePack

fifa19

RePack

RDR2

RePack

NEED FOR SPEED™ PAYBACK

Кинопоиск HD

6 сезон

 Острые козырьки 6 сезон

Все сериалы

все сериалы на PB.wtf

RePack

FAR CRY 5

Anonymous, нам критически не хватает 5601 руб. на оплату серверов и переферии за Апрель, помоги нам пожалуйста, вся надежда только на тебя. В благодарность мы отключим тебе всю рекламу на сайте!

×
  
Magnet ссылка

Крепкий сон / Пока ты спишь / Sleep Tight / Mientras duermes (Жауме Балагеро) [2011, Триллер, драма, BDRip 1080p] MVO [HDRezka Studio] +AVO [Ю.Немахов] pb.wtf

Крепкий сон через торрент pb.wtf

Размер: 9.16 GB | Добавлен: 2 года 1 мес. назад | Торрент скачан:98 раз
Смотреть онлайн Крепкий сон | Скачать    Ребята, помогите собрать деньги на оплату серверов!!!

26-04-2020 18:16 Крепкий сон Скачать торрент  

Крепкий сон | Пока ты спишь | Sleep Tight | Mientras duermes
Год выпуска: 2011
Страна: Испания
Студия: Filmax Entertainment, Canal+ España, Coser y Cantar, Televisió de Catalunya
Жанр: Триллер, драма
Продолжительность: 01:40:56
Перевод: Профессиональный (многоголосый), Авторский одноголосый
Субтитры: Русские (Forced, Full), английские, немецкие

Режиссер: Жауме Балагеро

rating

В ролях: Луис Тосар, Марта Этура, Альберто Сан Хуан, Петра Мартинес, Ирис Альмейда, Карлос Ласарте, Ампаро Фернандес, Рохер Морилья, Пеп Тосар, Маргарита Росед, Рубен Аметлье, Манель Дуэсо, Тони Корвильо, Рикард Садурни, Ксавьер Пухольрас

Описание: Сесар работает консьержем в небольшом жилом доме в Барселоне. Он глубоко несчастлив и ищет хоть какую-нибудь причину для дальнейшего существования. День за днем он выполняет свою работу и, пока никто из жителей дома не обращает на него особого внимания, сам он неустанно наблюдает за ними. Он знает каждую мелочь в их жизнях, всё о них, а в особенности об одной из них.

Качество: BDRip 1080p
Формат: MKV

Видео: MPEG-4 AVC, 10.4 Mбит/с, 1920x816, 24.000 кадр/с
Аудио#1: Русский (АС3, 6 ch, 448 Кбит/с, 48.0 KHz) Профессиональный (многоголосый, закадровый) HDRezka Studio
Аудио#2: Русский (АС3, 6 ch, 640 Кбит/с, 48.0 KHz) Aвторский (одноголосый, закадровый) Юрий Немахов
Аудио#3: Испанский (DTS, 6 ch, 1509 Кбит/с, 48.0 KHz)
скриншот  скриншот  скриншот  скриншот  скриншот  

Источник: SLEEP_TIGHT_REMUX_HDCLUB
General
Unique ID: 232609761305145361602655743755374477209 (0xAEFF02ADDCDBB1C49E912BC20C8EBF99)
Complete name: Sleep.Tight.2011.BDRip.1080p.mkv
Format: Matroska
Format version: Version 4
File size: 9.16 GiB
Duration: 1 h 40 min
Overall bit rate: 13.0 Mb/s
Encoded date: UTC 2020-04-26 09:50:24
Writing application: mkvmerge v7.1.0 ('Good Love') 64bit built on Jul 27 2014 13:06:55
Writing library: libebml v1.3.0 + libmatroska v1.4.1

Video
ID: 1
Format: AVC
Format/Info: Advanced Video Codec
Format profile: High@L4.1
Format settings: CABAC / 5 Ref Frames
Format settings, CABAC: Yes
Format settings, Reference fra: 5 frames
Codec ID: V_MPEG4/ISO/AVC
Duration: 1 h 40 min
Bit rate: 10.4 Mb/s
Width: 1 920 pixels
Height: 816 pixels
Display aspect ratio: 2.35:1
Frame rate mode: Constant
Frame rate: 24.000 FPS
Color space: YUV
Chroma subsampling: 4:2:0
Bit depth: 8 bits
Scan type: Progressive
Bits/(Pixel*Frame): 0.277
Stream size: 7.33 GiB (80%)
Writing library: x264 core 157 r2958 57baac4
Encoding settings: cabac=1 / ref=5 / deblock=1:-3:-3 / analyse=0x3:0x113 / me=umh / subme=11 / psy=1 / psy_rd=1.00:0.00 / mixed_ref=1 / me_range=48 / chroma_me=1 / trellis=2 / 8x8dct=1 / cqm=0 / deadzone=21, 11 / fast_pskip=1 / chroma_qp_offset=-2 / threads=18 / lookahead_threads=4 / sliced_threads=0 / nr=0 / decimate=1 / interlaced=0 / bluray_compat=0 / constrained_intra=0 / bframes=10 / b_pyramid=2 / b_adapt=2 / b_bias=0 / direct=3 / weightb=1 / open_gop=0 / weightp=2 / keyint=240 / keyint_min=24 / scenecut=40 / intra_refresh=0 / rc_lookahead=60 / rc=2pass / mbtree=1 / bitrate=10400 / ratetol=1.0 / qcomp=0.60 / qpmin=0 / qpmax=69 / qpstep=4 / cplxblur=20.0 / qblur=0.5 / ip_ratio=1.40 / aq=1:1.00
Language: English
Default: Yes
Forced: No
Color range: Limited
Color primaries: BT.709
Transfer characteristics: BT.709
Matrix coefficients: BT.709

Audio #1
ID: 2
Format: AC-3
Format/Info: Audio Coding 3
Commercial name: Dolby Digital
Codec ID: A_AC3
Duration: 1 h 40 min
Bit rate mode: Constant
Bit rate: 448 kb/s
Channel(s): 6 channels
Channel layout: L R C LFE Ls Rs
Sampling rate: 48.0 kHz
Frame rate: 31.250 FPS (1536 SPF)
Compression mode: Lossy
Stream size: 323 MiB (3%)
Title: MVO | HDRezka Studio
Language: Russian
Service kind: Complete Main
Default: Yes
Forced: No

Audio #2
ID: 3
Format: AC-3
Format/Info: Audio Coding 3
Commercial name: Dolby Digital
Codec ID: A_AC3
Duration: 1 h 40 min
Bit rate mode: Constant
Bit rate: 640 kb/s
Channel(s): 6 channels
Channel layout: L R C LFE Ls Rs
Sampling rate: 48.0 kHz
Frame rate: 31.250 FPS (1536 SPF)
Compression mode: Lossy
Stream size: 462 MiB (5%)
Title: AVO | Ю. Немахов
Language: Russian
Service kind: Complete Main
Default: No
Forced: No

Audio #3
ID: 4
Format: DTS
Format/Info: Digital Theater Systems
Codec ID: A_DTS
Duration: 1 h 40 min
Bit rate mode: Constant
Bit rate: 1 509 kb/s
Channel(s): 6 channels
Channel layout: C L R Ls Rs LFE
Sampling rate: 48.0 kHz
Frame rate: 93.750 FPS (512 SPF)
Bit depth: 16 bits
Compression mode: Lossy
Stream size: 1.06 GiB (12%)
Language: Spanish
Default: No
Forced: No

Text #1
ID: 5
Format: UTF-8
Codec ID: S_TEXT/UTF8
Codec ID/Info: UTF-8 Plain Text
Duration: 1 h 35 min
Bit rate: 0 b/s
Count of elements: 16
Stream size: 409 Bytes (0%)
Title: Forced
Language: Russian
Default: Yes
Forced: No

Text #2
ID: 6
Format: UTF-8
Codec ID: S_TEXT/UTF8
Codec ID/Info: UTF-8 Plain Text
Duration: 1 h 36 min
Bit rate: 60 b/s
Count of elements: 918
Stream size: 42.7 KiB (0%)
Title: Full
Language: Russian
Default: No
Forced: No

Text #3
ID: 7
Format: UTF-8
Codec ID: S_TEXT/UTF8
Codec ID/Info: UTF-8 Plain Text
Duration: 1 h 35 min
Bit rate: 34 b/s
Count of elements: 995
Stream size: 24.0 KiB (0%)
Language: English
Default: No
Forced: No

Text #4
ID: 8
Format: UTF-8
Codec ID: S_TEXT/UTF8
Codec ID/Info: UTF-8 Plain Text
Duration: 1 h 36 min
Bit rate: 40 b/s
Count of elements: 809
Stream size: 28.4 KiB (0%)
Language: German
Default: No
Forced: No

Menu
00:00:00.000: en:Chapter 01
00:08:58.250: en:Chapter 02
00:17:43.541: en:Chapter 03
00:24:38.916: en:Chapter 04
00:32:39.916: en:Chapter 05
00:40:31.416: en:Chapter 06
00:49:12.958: en:Chapter 07
00:58:44.708: en:Chapter 08
01:09:49.208: en:Chapter 09
01:22:04.416: en:Chapter 10
01:29:09.250: en:Chapter 11
01:36:12.000: en:Chapter 12

pb.wtf



Скачать Крепкий сон через торрент http://img11.lostpic.net/2018/09/08/cc08556d1c24b525f940d61805547c94.png Скачать, смотреть онлайн Крепкий сон бесплантно в хорошем качестве Описание: Сесар работает консьержем в небольшом жилом доме в Барселоне. Он глубоко несчастлив и ищет хоть какую-нибудь причину для ... 10 10 5
Торрент: Зарегистрирован [2020-04-26 18:16] · скачан: 98 раз
Статус: √ проверено
Размер: 9.16 GB
Как cкачать? Как скачать Крепкий сон через торрент | UTorrent

28-11-2019 20:33  

Отключить всю рекламу на сайте

    Дорогой пользователь! Огромная просьба, поблагодарите релизера, оцените раздачу и оставьте свои комментарий, если Вы скачали Крепкий сон через торрент бесплатно!
    Комментировать посты могут только пользователи прошедшие не сложную регистрацию
    Показать сообщения:    

    Крепкий сон через торрент
    Скачать бесплатно Крепкий сон
    Крепкий сон скачать торрент
    Крепкий сон смотреть онлайн
    Cкачать фильм Крепкий сон бесплатно
    Крепкий сон скачать торрент в хорошем качестве
    Крепкий сон смотреть онлайн бесплатно в хорошем качестве


    Вы не можете начинать темы
    Вы не можете отвечать на сообщения
    Вы не можете редактировать свои сообщения
    Вы не можете удалять свои сообщения
    Вы не можете голосовать в опросах
    Вы не можете прикреплять файлы к сообщениям
    Вы можете скачивать файлы