1 сезон

1 сезон

iTunes

1

КиноПоиск HD

Кинопоиск HD

iTunes

13

1 сезон

RePack

30

Новинка

ВАЖНО

ИГРА 18+

pack

RePack

MK11
pack

Легкие деньги

RePack

jed

RePack

fifa19

RePack

RDR2

RePack

NEED FOR SPEED™ PAYBACK

4 сезон

9 сезон

Бесстыжие 9 сезон

Все сериалы

все сериалы на PB.wtf

RePack

FAR CRY 5
  
Magnet ссылка

Симона / S1m0ne (Эндрю Никкол) [2002 г., фантастика, фэнтези, драма, комедия, HDTVRip] DUB, MVO, AVO (Юрий Живов) pb.wtf

Симона через торрент pb.wtf

Размер: 2.49 GB | Добавлен: 11 мес. назад | Торрент скачан:8 раз
Скачать  

26-04-2020 18:26 Симона Скачать торрент  

Симона / S1m0ne
Год выпуска: 2002

Страна: США

Жанр: Фантастика, фэнтези, драма, комедия

Продолжительность: 01:57:22

Перевод: Дублированный, профессиональный (многоголосый), авторский (одноголосый)

Режиссер: Эндрю Никкол

rating

В ролях: Аль Пачино, Бенжамин Салисбери, Вайнона Райдер, Дарнелл Уильямс, Джим Рэш, Рон Перкинс, Джей Мор, Кэтрин Кинер, Эван Рэйчел Вуд, Джеффри Пирс, Джефф Уильямс, Рэйчел Робертс, Митци Мартин, Кристофер Нейман, Джоли Дженкинс, Дэрин Химс

Описание: Съемки фильма поставлены под угрозу срыва, когда актриса, предполагавшаяся на главную роль, отказывается сниматься. Режиссёр решает заменить её цифровой актрисой Симоной, созданной с помощью компьютера. Однако все принимают искусственную девушку за настоящую. На волне внезапного успеха Симоны режиссёр не осмеливается раскрыть свой обман ни окружающим, ни самому себе.
Качество: HDTVRip
Формат: AVI
Видео: XviD, 1665 Кбит/с, 720x304
Аудио#1: Русский, AC-3, 6 ch, 448 Кбит/с - DUB
Аудио#2: Русский, AC-3, 6 ch, 448 Кбит/с - MVO
Аудио#3: Русский, AC-3, 6 ch, 448 Кбит/с - AVO (Юрий Живов)
Видео
Идентификатор : 0
Формат : MPEG-4 Visual
Профиль формата : Simple@L3
Параметр BVOP формата : Нет
Параметр QPel формата : Нет
Параметр GMC формата : Без точки перехода
Параметр матрицы формата : Default (H.263)
Идентификатор кодека : XVID
Идентификатор кодека/Подсказка : XviD
Продолжительность : 1 ч. 57 м.
Битрейт : 1665 Кбит/сек
Ширина : 720 пикселей
Высота : 304 пикселя
Соотношение сторон : 2,35:1
Частота кадров : 23,976 (24000/1001) кадра/сек
Цветовое пространство : YUV
Субдискретизация насыщенности : 4:2:0
Битовая глубина : 8 бит
Тип развёртки : Прогрессивная
Метод сжатия : С потерями
Бит/(Пиксели*Кадры) : 0.317
Размер потока : 1,36 Гбайт (55%)
Библиотека кодирования : XviD 1.1.2 (UTC 2006-11-01)

Аудио #1
Идентификатор : 1
Формат : AC-3
Формат/Информация : Audio Coding 3
Коммерческое название : Dolby Digital
Идентификатор кодека : 2000
Продолжительность : 1 ч. 57 м.
Вид битрейта : Постоянный
Битрейт : 448 Кбит/сек
Каналы : 6 каналов
ChannelLayout : L R C LFE Ls Rs
Частота : 48,0 КГц
Частота кадров : 31,250 кадров/сек (1536 SPF)
Битовая глубина : 16 бит
Метод сжатия : С потерями
Размер потока : 376 Мбайт (15%)
Выравнивание : Разделение по промежуткам
Продолжительность промежутка : 42 мс. (1,00 видеокадр)
Время предзагрузки промежутка : 500 мс.
ServiceKind/String : Complete Main

Аудио #2
Идентификатор : 2
Формат : AC-3
Формат/Информация : Audio Coding 3
Коммерческое название : Dolby Digital
Идентификатор кодека : 2000
Продолжительность : 1 ч. 57 м.
Вид битрейта : Постоянный
Битрейт : 448 Кбит/сек
Каналы : 6 каналов
ChannelLayout : L R C LFE Ls Rs
Частота : 48,0 КГц
Частота кадров : 31,250 кадров/сек (1536 SPF)
Битовая глубина : 16 бит
Метод сжатия : С потерями
Размер потока : 376 Мбайт (15%)
Выравнивание : Разделение по промежуткам
Продолжительность промежутка : 42 мс. (1,00 видеокадр)
Время предзагрузки промежутка : 500 мс.
ServiceKind/String : Complete Main

Аудио #3
Идентификатор : 3
Формат : AC-3
Формат/Информация : Audio Coding 3
Коммерческое название : Dolby Digital
Идентификатор кодека : 2000
Продолжительность : 1 ч. 57 м.
Вид битрейта : Постоянный
Битрейт : 448 Кбит/сек
Каналы : 6 каналов
ChannelLayout : L R C LFE Ls Rs
Частота : 48,0 КГц
Частота кадров : 31,250 кадров/сек (1536 SPF)
Битовая глубина : 16 бит
Метод сжатия : С потерями
Размер потока : 376 Мбайт (15%)
Выравнивание : Разделение по промежуткам
Продолжительность промежутка : 42 мс. (1,00 видеокадр)
Время предзагрузки промежутка : 500 мс.
ServiceKind/String : Complete Main

скриншот   скриншот   скриншот   скриншот   скриншот  

pb.wtf



Скачать Симона через торрент https://pic1.kartinco.top/images/12/t8dgl.jpg Скачать фильм Симона через торрент бесплантно в хорошем качестве Описание: Съемки фильма поставлены под угрозу срыва, когда актриса, предполагавшаяся на главную роль, отказывается сниматься. Режиссёр ... 5 10 1
Торрент: Зарегистрирован [2020-04-26 18:26] · скачан: 8 раз
Статус: √ проверено
Размер: 2.49 GB
Как cкачать? Как скачать Симона через торрент | UTorrent

% Раздел Тема Автор DL S | L
Фильмы (WEB-DL 720p, 1080p) [ 5.46 GB ] Симона / S1m0ne [2002 HDTVRip 720p] Holms_vrn Скачать
2 | 0
Фильмы 2001-2005 [ 2.05 GB ] Симона / S1m0ne [2002 DVDRip] m9sо Скачать
1 | 0

28-11-2019 20:33  

Отключить всю рекламу на сайте

    Дорогой пользователь! Огромная просьба, поблагодарите релизера, оцените раздачу и оставьте свои комментарий, если Вы скачали Симона через торрент бесплатно! Внесите свою лепту в развитие PiratBit!
    Комментировать посты могут только пользователи прошедшие не сложную регистрацию
    Показать сообщения:    

    Симона через торрент
    Скачать бесплатно Симона
    Симона скачать торрент
    Симона смотреть онлайн
    Cкачать фильм Симона бесплатно
    Симона скачать торрент в хорошем качестве
    Симона смотреть онлайн бесплатно в хорошем качестве


    Вы не можете начинать темы
    Вы не можете отвечать на сообщения
    Вы не можете редактировать свои сообщения
    Вы не можете удалять свои сообщения
    Вы не можете голосовать в опросах
    Вы не можете прикреплять файлы к сообщениям
    Вы можете скачивать файлы