Ссылка на приватное зеркало нашего сайта всего за 1$. Внимание количество ограничено!!!

2 сезон

iTunes

1 сезон

1

iTunes

iTunes

iTunes

1 сезон

RePack

30

ИГРА 18+

pack

ВАЖНО

!!Акция!!

Alien_RageХит недели

RePack

MK11
pack

Забери бонус

RePack

jed

!!Акция!!

Alien_Rage

RePack

fifa19

RePack

Assassins Creed: Odyssey

RePack

NEED FOR SPEED™ PAYBACK

4 сезон

9 сезон

Бесстыжие 9 сезон

Все сериалы

все сериалы на PB.wtf

RePack

FAR CRY 5
  

Безопасные связи / Сезон: 1 / Серии: 1-8 из 8 (Константин Богомолов) [2020, Драма, WEBRip] pb.wtf

Безопасные связи через торрент pb.wtf

Раздают: 52 [ 378 KB/s ] Качают: 9 [ 0 KB/s ]
Размер: 3.17 GB | Добавлен: 5 мес. 4 д. назад | Торрент скачан:108 раз
Скачать  

26-04-2020 20:28 Безопасные связи Скачать торрент  

Безопасные связи
Год выпуска: 2020
Страна: Россия
Жанр: Драма
Продолжительность: ~ 00:25:00
Субтитры: отсутствуют

Режиссер: Константин Богомолов



В ролях: Мария Шумакова, Никита Ефремов, Леонид Бичевин, Александра Ребенок, Любовь Аксёнова, Игорь Миркурбанов, Надежда Маркина, Сергей Сосновский

Описание: Три истории отношений, три жанра. Маша и Коля – любовники, застрявшие в самоизоляции со своими законными супругами. Пары дружат семьями, и бесконечная ложь пропитывает их звонки друг другу, создавая массу комических и драматических ситуаций. Анна живет одна, и звонки Виктора ей, похоже, не очень приятны. Но она все равно отвечает на них и почему-то не прерывает разговор с давним знакомым, в отношениях с которым есть какая-то тайна из прошлого. Девушка ищет в интернете работу и получает странное предложение от мужчины, по возрасту годящегося ей в отцы.

Качество: WEBRip
Формат: AVI

Видео: XviD, 1600 Кбит/с, 720x400
Аудио: 48.0 kHz, AC3 Dolby Digital, 2/0 (L,R) ch, ~ 192 kbps
скриншот  скриншот  скриншот  скриншот  скриншот  

General
Complete name : H:\fiiles x\Безопасные связи.2020.WEB-DLRip.Files-x\01. Безопасные связи.2020.WEB-DLRip.Files-x.avi
Format : AVI
Format/Info : Audio Video Interleave
File size : 377 MiB
Duration : 26mn 53s
Overall bit rate : 1 962 Kbps
Writing application : VirtualDubMod 1.5.10.3 | www.virtualdub-fr.org || (build 2550/release)
Writing library : VirtualDubMod build 2550/release

Video
ID : 0
Format : MPEG-4 Visual
Format profile : Advanced Simple@L5
Format settings, BVOP : 1
Format settings, QPel : No
Format settings, GMC : No warppoints
Format settings, Matrix : Custom
Codec ID : XVID
Codec ID/Hint : XviD
Duration : 26mn 53s
Bit rate : 1 761 Kbps
Width : 720 pixels
Height : 400 pixels
Display aspect ratio : 16:9
Frame rate : 25.000 fps
Color space : YUV
Chroma subsampling : 4:2:0
Bit depth : 8 bits
Scan type : Progressive
Compression mode : Lossy
Bits/(Pixel*Frame) : 0.245
Stream size : 339 MiB (90%)
Writing library : XviD 73

Audio
ID : 1
Format : AC-3
Format/Info : Audio Coding 3
Mode extension : CM (complete main)
Codec ID : 2000
Duration : 26mn 52s
Bit rate mode : Constant
Bit rate : 192 Kbps
Channel(s) : 2 channels
Channel positions : Front: L R
Sampling rate : 48.0 KHz
Bit depth : 16 bits
Compression mode : Lossy
Stream size : 36.9 MiB (10%)
Alignment : Split accross interleaves
Interleave, duration : 40 ms (1.00 video frame)
Interleave, preload duration : 500 ms

Внимание! Раздача ведётся путём добавления новых серий; при каждом добавлении создаётся новый торрент.
Чтобы начать докачку новой серии, пользователям необходимо сделать следующее:
1. Остановить скачивание;
2. Удалить старый торрент у себя из клиента (старые серии удалять не надо);
3. Скачать новый торрент и запустить его у себя в клиенте вместо старого, при этом указать клиенту путь в старую папку куда и должно происходить скачивание новых серий. Ваш клиент при этом должен произвести хеширование (проверку) старой папки и будет докачивать только те серии, которых у вас ещё нет. Старые серии при этом не удаляются, а продолжают раздаваться! Eсли вы уже удалили старые серии, то предотвратить повторную закачку старых серий можно, отжав галочку в соответствующих местах при запуске нового торрента.
pb.wtf



Скачать Безопасные связи через торрент https://i111.fastpic.ru/big/2020/0426/fb/2196ead39c1f02a4966f70931da9f6fb.jpg Скачать фильм Безопасные связи через торрент бесплантно в хорошем качестве Описание: Три истории отношений, три жанра. Маша и Коля – любовники, застрявшие в самоизоляции со своими законными супругами. Пары дружат ... 9.8 10 6
Торрент: Зарегистрирован [2020-05-21 13:00] · скачан: 108 раз
Статус: √ проверено
Размер: 3.17 GB
Как cкачать? Как скачать Безопасные связи через торрент | qTorrent

% Раздел Тема Автор DL S | L
Наши сериалы [ 2.88 GB ] Безопасные связи / Сезон: 1 / Серии: 1-8 из 8 [2020 WEBRip-AVC] bober100 Скачать
1 | 0

28-11-2019 20:33  

Отключить всю рекламу на сайте

    Дорогой пользователь! Огромная просьба, поблагодарите релизера, оцените раздачу и оставьте свои комментарий, если Вы скачали Безопасные связи через торрент бесплатно! Внесите свою лепту в развитие PiratBit!
    Комментировать посты могут только пользователи прошедшие не сложную регистрацию
    Показать сообщения:    

    Безопасные связи через торрент
    Скачать бесплатно Безопасные связи
    Безопасные связи скачать торрент
    Безопасные связи смотреть онлайн
    Cкачать фильм Безопасные связи бесплатно
    Безопасные связи скачать торрент в хорошем качестве
    Безопасные связи смотреть онлайн бесплатно в хорошем качестве


    Вы не можете начинать темы
    Вы не можете отвечать на сообщения
    Вы не можете редактировать свои сообщения
    Вы не можете удалять свои сообщения
    Вы не можете голосовать в опросах
    Вы не можете прикреплять файлы к сообщениям
    Вы можете скачивать файлы