Ссылка на приватное зеркало нашего сайта всего за 1$. Внимание количество ограничено!!!

2 сезон

iTunes

1 сезон

1

iTunes

iTunes

iTunes

1 сезон

RePack

30

ИГРА 18+

pack

ВАЖНО

!!Акция!!

Alien_RageХит недели

RePack

MK11
pack

Забери бонус

RePack

jed

!!Акция!!

Alien_Rage

RePack

fifa19

RePack

Assassins Creed: Odyssey

RePack

NEED FOR SPEED™ PAYBACK

4 сезон

9 сезон

Бесстыжие 9 сезон

Все сериалы

все сериалы на PB.wtf

RePack

FAR CRY 5
  

Сашино дело / Серии: 1-4 из 4 (Александр Итыгилов) [2020 г., детектив, криминал, мелодрама, WEBRip] pb.wtf

Сашино дело через торрент pb.wtf

Размер: 2.27 GB | Добавлен: 5 мес. назад | Торрент скачан:69 раз
Скачать  

27-04-2020 11:26 Сашино дело Скачать торрент  

Сашино дело
Год выпуска: 2020

Страна: Украина

Жанр: Детектив, криминал, мелодрама

Продолжительность: 4 x ~ 00:45:10

Режиссер: Александр Итыгилов

В ролях: Елена Шилова, Павел Вишняков, Михаил Пшеничный, Даниил Белых, Фёдор Гуринец, Дарья Соколюк, Ксения Мишина, Артём Позняк, Наталия Денисенко

Описание: Саша Гурская – отличный следователь. Но вот дома у неё – всё сложнее, чем на работе. Конфликты между 15-летней дочкой Лизой и Сашиным мужем вспыхивают всё чаще. Саша между ними – как меж двух огней: не знает, кому угодить первому. Когда дочка после очередного скандала с отчимом сбегает из дома в надежде найти родного отца, Саша понимает, что готова на всё, чтобы сделать наконец дочку счастливой...
Качество: WEBRip
Формат: AVI
Видео: XviD, ~ 1600 Кбит/с, 720x400, 25 кадр/с
Аудио: Русский, AC3, 2 ch, 192 Кбит/сек
Видео
Идентификатор : 0
Формат : MPEG-4 Visual
Профиль формата : Advanced Simple@L5
Настройки формата : BVOP1 / Custom Matrix
Параметр BVOP формата : 1
Параметр QPel формата : Нет
Параметр GMC формата : Без точки перехода
Параметр матрицы формата : Выборочная
Идентификатор кодека : XVID
Идентификатор кодека/Подсказка : XviD
Продолжительность : 45 м. 10 с.
Битрейт : 1600 Кбит/сек
Ширина : 720 пикселей
Высота : 400 пикселей
Соотношение сторон : 16:9
Частота кадров : 25,000 кадров/сек
Цветовое пространство : YUV
Субдискретизация насыщенности : 4:2:0
Битовая глубина : 8 бит
Тип развёртки : Прогрессивная
Метод сжатия : С потерями
Бит/(Пиксели*Кадры) : 0.222
Размер потока : 517 Мбайт (89%)
Библиотека кодирования : XviD 73

Аудио
Идентификатор : 1
Формат : AC-3
Формат/Информация : Audio Coding 3
Коммерческое название : Dolby Digital
Идентификатор кодека : 2000
Продолжительность : 45 м. 10 с.
Вид битрейта : Постоянный
Битрейт : 192 Кбит/сек
Каналы : 2 канала
ChannelLayout : L R
Частота : 48,0 КГц
Частота кадров : 31,250 кадров/сек (1536 SPF)
Битовая глубина : 16 бит
Метод сжатия : С потерями
Размер потока : 62,0 Мбайт (11%)
Выравнивание : Разделение по промежуткам
Продолжительность промежутка : 40 мс. (1,00 видеокадр)
Время предзагрузки промежутка : 500 мс.
ServiceKind/String : Complete Main

скриншот   скриншот   скриншот   скриншот  
pb.wtf



Скачать Сашино дело через торрент http://pic1.kartinco.top/images/12/metf3.jpg Скачать фильм Сашино дело через торрент бесплантно в хорошем качестве Описание: Саша Гурская – отличный следователь. Но вот дома у неё – всё сложнее, чем на работе. Конфликты между 15-летней дочкой Лизой и ... 10 10 3
Торрент: Зарегистрирован [2020-04-27 11:26] · скачан: 69 раз
Статус: √ проверено
Размер: 2.27 GB
Как cкачать? Как скачать Сашино дело через торрент | qTorrent

28-11-2019 20:33  

Отключить всю рекламу на сайте

    Дорогой пользователь! Огромная просьба, поблагодарите релизера, оцените раздачу и оставьте свои комментарий, если Вы скачали Сашино дело через торрент бесплатно! Внесите свою лепту в развитие PiratBit!
    Комментировать посты могут только пользователи прошедшие не сложную регистрацию
    Показать сообщения:    

    Сашино дело через торрент
    Скачать бесплатно Сашино дело
    Сашино дело скачать торрент
    Сашино дело смотреть онлайн
    Cкачать фильм Сашино дело бесплатно
    Сашино дело скачать торрент в хорошем качестве
    Сашино дело смотреть онлайн бесплатно в хорошем качестве


    Вы не можете начинать темы
    Вы не можете отвечать на сообщения
    Вы не можете редактировать свои сообщения
    Вы не можете удалять свои сообщения
    Вы не можете голосовать в опросах
    Вы не можете прикреплять файлы к сообщениям
    Вы можете скачивать файлы