Ссылка на приватное зеркало всего за 1$. Внимание количество ограничено!!!

iTunes

iTunes

iTunes

1

iTunes

iTunes

iTunes

WEBRip

iTunes

30
pack

$ от Little Big

ВАЖНО

!!Акция!!

Alien_RageХит недели

RePack

Resident Evil 21

ИГРА 18+

pack

RePack

jed

!!Акция!!

Alien_Rage

RePack

fifa19

RePack

Assassins Creed: Odyssey

RePack

NEED FOR SPEED™ PAYBACK

4 сезон

9 сезон

Бесстыжие 9 сезон

Все сериалы

все сериалы на PB.wtf

RePack

FAR CRY 5
  

Калашников (Константин Буслов) [2020, биография, история, WEB-DLRip-AVC] [iTunes] pb.wtf

Калашников через торрент pb.wtf

Раздают: 8 [ 0 KB/s ]
Размер: 1.46 GB | Добавлен: 3 мес. 5 д. назад | Торрент скачан:264 раза
Скачать  

27-04-2020 15:35 Калашников Скачать торрент  

Калашников
Год выпуска: 2020
Страна: Россия
Студия: RB Production
Жанр: биография, история
Продолжительность: 01:44:31
Перевод: Не требуется | iTunes
Субтитры: отсутствуют

Режиссер: Константин Буслов

rating

В ролях: Юрий Борисов, Ольга Лерман, Артур Смольянинов, Эльдар Калимулин, Виталий Хаев, Валерий Баринов, Анатолий Лобоцкий, Алексей Вертков, Дмитрий Богдан, Максим Битюков

Описание: Калашников. Все знают эту фамилию, но не все знают, какой долгий и тернистый путь прошел парень-самоучка, чтобы в 28 создать легендарное оружие АК-47, которое по сей день является символом оружейной мысли нашего времени.

Качество: WEB-DLRip-AVC
Формат: MKV

Видео: 1024x426 (2,40:1), 24 fps, MPEG-4 AVC, 2598 Кbps avg, 0.248 bit/pixel
Аудио: 48 kHz, AC3 Dolby Digital, 3/2 (L,C,R,l,r) + LFE ch, ~384 kbps
скриншот  скриншот  скриншот  скриншот  скриншот  

Общее
Уникальный идентификатор : 37440897195803946560737432183015906030 (0x1C2ADAC0DDE00B6F748644E7A39A9AEE)
Полное имя : Kalashnikov.2020.WEB-DLRip.2.18Gb.x264.mkv
Формат : Matroska
Версия формата : Version 4
Размер файла : 2,18 Гбайт
Продолжительность : 1 ч. 44 м.
Общий поток : 2982 Кбит/сек
Название фильма : Калашников (2020)
Дата кодирования : UTC 2020-04-27 03:10:07
Программа кодирования : mkvmerge v41.0.0 ('Smarra') 64-bit
Библиотека кодирования : libebml v1.3.9 + libmatroska v1.5.2
Обложка : Yes
Attachments : cover.jpg

Видео
Идентификатор : 1
Формат : AVC
Формат/Информация : Advanced Video Codec
Профиль формата : High@L4.1
Настройки формата : CABAC / 10 Ref Frames
Параметр CABAC формата : Да
Параметр RefFrames формата : 10 кадров
Идентификатор кодека : V_MPEG4/ISO/AVC
Продолжительность : 1 ч. 44 м.
Битрейт : 2598 Кбит/сек
Ширина : 1024 пикселя
Высота : 426 пикселей
Соотношение сторон : 2,40:1
Режим частоты кадров : Постоянный
Частота кадров : 24,000 кадра/сек
Цветовое пространство : YUV
Субдискретизация насыщенности : 4:2:0
Битовая глубина : 8 бит
Тип развёртки : Прогрессивная
Бит/(Пиксели*Кадры) : 0.248
Размер потока : 1,90 Гбайт (87%)
Заголовок : #stillet
Библиотека кодирования : x264 core 152 r2851bm ba24899
Настройки программы : cabac=1 / ref=10 / deblock=1:-3:-3 / analyse=0x3:0x113 / me=umh / subme=11 / psy=1 / psy_rd=1.00:0.15 / mixed_ref=1 / me_range=32 / chroma_me=1 / trellis=2 / 8x8dct=1 / cqm=0 / deadzone=21,11 / fast_pskip=0 / chroma_qp_offset=-3 / threads=8 / lookahead_threads=3 / sliced_threads=0 / nr=0 / decimate=0 / interlaced=0 / bluray_compat=0 / constrained_intra=0 / bframes=10 / b_pyramid=2 / b_adapt=2 / b_bias=0 / direct=3 / weightb=1 / open_gop=0 / weightp=2 / keyint=240 / keyint_min=23 / scenecut=40 / intra_refresh=0 / rc=2pass / mbtree=0 / bitrate=2598 / ratetol=1.0 / qcomp=0.60 / qpmin=0 / qpmax=69 / qpstep=4 / cplxblur=20.0 / qblur=0.5 / ip_ratio=1.40 / pb_ratio=1.30 / aq=1:1.00
Язык : English
Default : Да
Forced : Нет

Аудио
Идентификатор : 2
Формат : AC-3
Формат/Информация : Audio Coding 3
Коммерческое название : Dolby Digital
Идентификатор кодека : A_AC3
Продолжительность : 1 ч. 44 м.
Вид битрейта : Постоянный
Битрейт : 384 Кбит/сек
Каналы : 6 каналов
ChannelLayout : L R C LFE Ls Rs
Частота : 48,0 КГц
Частота кадров : 31,250 кадров/сек (1536 SPF)
Метод сжатия : С потерями
Размер потока : 287 Мбайт (13%)
Заголовок : iTunes
Язык : Russian
Default : Да
Forced : Нет

Меню
00:00:00.000 : en:Глава 1
00:08:01.916 : en:Глава 2
00:16:22.249 : en:Глава 3
00:24:29.789 : en:Глава 4
00:32:31.622 : en:Глава 5
00:40:34.038 : en:Глава 6
00:48:46.079 : en:Глава 7
00:57:10.829 : en:Глава 8
01:05:21.245 : en:Глава 9
01:13:33.910 : en:Глава 10
01:21:54.910 : en:Глава 11
01:30:45.535 : en:Глава 12
01:37:40.535 : en:Глава 13

pb.wtf



Скачать Калашников через торрент https://i1.imageban.ru/out/2020/04/27/eacd05d6885330d1f92b9ad27a825538.png Скачать фильм Калашников через торрент бесплантно в хорошем качестве Описание: Калашников. Все знают эту фамилию, но не все знают, какой долгий и тернистый путь прошел парень-самоучка, чтобы в 28 создать ... 8.5 10 18
Info! Золотая раздача, скачанное не засчитывается.
Торрент: Зарегистрирован [2020-05-04 13:03] · скачан: 264 раз
Статус: √ проверено
Размер: 1.46 GB
Как cкачать? Как скачать Калашников через торрент | qTorrent

% Раздел Тема Автор DL S | L
Наши фильмы (HD, WEB-DL 720p, 1080p) [ 4.01 GB ] Калашников [2020 биография история WEB-DL 1080p] bober100 Скачать
14 | 0
Наши новые фильмы 2018-2019 [ 2.18 GB ] Калашников [2020 биография история WEB-DLRip-AVC] bober100 Скачать
4 | 0
Наши новые фильмы 2018-2019 [ 746 MB ] Калашников [2020 биография история WEB-DLRip] bober100 Скачать
2 | 0
Наши фильмы (HD, WEB-DL 720p, 1080p) [ 2.15 GB ] Калашников [2020 биография история WEB-DL 720p] bober100 Скачать
3 | 0
Наши новые фильмы 2018-2019 [ 1.46 GB ] Калашников [2020 биография история WEB-DLRip] bober100 Скачать
1 | 0
Клипы [ 149 MB ] Анна Калашникова - По любви [клип] [2019 Поп WEBRip 1080p] bober100 Скачать
1 | 0
Клипы [ 111 MB ] Анна Калашникова - Жара [клип] [2019 Поп WEBRip 1080p] bober100 Скачать
1 | 0


Последний раз редактировалось: bober100 (2020-05-04 13:03), всего редактировалось 1 раз

28-11-2019 20:33  

Отключить всю рекламу на сайте

    Дорогой пользователь! Огромная просьба, поблагодарите релизера, оцените раздачу и оставьте свои комментарий, если Вы скачали Калашников через торрент бесплатно! Внесите свою лепту в развитие PiratBit!
    Комментировать посты могут только пользователи прошедшие не сложную регистрацию
    Показать сообщения:    

    Калашников через торрент
    Скачать бесплатно Калашников
    Калашников скачать торрент
    Калашников смотреть онлайн
    Cкачать фильм Калашников бесплатно
    Калашников скачать торрент в хорошем качестве
    Калашников смотреть онлайн бесплатно в хорошем качестве


    Вы не можете начинать темы
    Вы не можете отвечать на сообщения
    Вы не можете редактировать свои сообщения
    Вы не можете удалять свои сообщения
    Вы не можете голосовать в опросах
    Вы не можете прикреплять файлы к сообщениям
    Вы можете скачивать файлы