2 сезон

iTunes

1 сезон

1

iTunes

iTunes

iTunes

1 сезон

RePack

30

ИГРА 18+

pack

ВАЖНО

!!Акция!!

Alien_RageХит недели

RePack

MK11
pack

Забери бонус

RePack

jed

!!Акция!!

Alien_Rage

RePack

fifa19

RePack

Assassins Creed: Odyssey

RePack

NEED FOR SPEED™ PAYBACK

4 сезон

9 сезон

Бесстыжие 9 сезон

Все сериалы

все сериалы на PB.wtf

RePack

FAR CRY 5
  

Чёрное море / Сезон: 1 / Серии: 1-8 из 8 (Сергей Щербин) [2020, Боевик, приключения, шпионский, детектив, HDTVRip] pb.wtf

Чёрное море через торрент pb.wtf

Раздают: 1 [ 0 KB/s ]
Размер: 5.16 GB | Добавлен: 5 мес. 25 д. назад | Торрент скачан:172 раза
Скачать  

27-04-2020 21:06 Чёрное море Скачать торрент  

Чёрное море
Год выпуска: 2020
Страна: Россия
Жанр: Боевик, приключения, шпионский фильм, детектив
Продолжительность: ~ 00:50:00
Перевод: Не требуется
Субтитры: отсутствуют

Режиссер: Сергей Щербин



В ролях: Павел Трубинер, Екатерина Вилкова, Юрий Цурило, Евгений Миллер, Алексей Шевченков, Анна Котова-Дерябина, Константин Адаев, Андрей Руденский, Виктор Проскурин, Сослан Фидаров, Максим Литовченко, Александр Кузьмин (II), Денис Константинов, Елена Митюкова (Степанян), Георгий Анохин, Анастасия Чепелюк, Иван Рысин

Описание: 1944 год. Незадолго до начала Kрымской наступательной операции кораблям Черноморского флота и Азовской флотилии угрожает серьёзная опасность. Немецкие диверсанты-подводники готовят крупномасштабную акцию по уничтожению основных боевых единиц флота. В Новороссийск приезжает капитан второго ранга Сергей Сабуров. Он призван усилить местную группу контрразведчиков по борьбе с подводными диверсантами под предводительством агента Кунца. Сабурову поручено выйти на Кунца и уничтожить школу по подготовке диверсантов-подводников.

Качество: HDTVRip
Формат: AVI

Видео: XviD, ~ 1600 Кбит/с, 720x352, 25 кадр/с
Аудио: 48.0 kHz, AC3 Dolby Digital, 2/0 (L,R) ch, ~ 192 kbps
скриншот  скриншот  скриншот  скриншот  скриншот  

General
Complete name : H:\fiiles x\Чёрное море..2020.HDTVRip.Files-x\01. Чёрное море..2020.HDTVRip.Files-x.avi
Format : AVI
Format/Info : Audio Video Interleave
File size : 652 MiB
Duration : 50mn 34s
Overall bit rate : 1 801 Kbps
Writing application : VirtualDubMod 1.5.10.3 | www.virtualdub-fr.org || (build 2550/release)
Writing library : VirtualDubMod build 2550/release

Video
ID : 0
Format : MPEG-4 Visual
Format profile : Advanced Simple@L5
Format settings, BVOP : 1
Format settings, QPel : No
Format settings, GMC : No warppoints
Format settings, Matrix : Custom
Codec ID : XVID
Codec ID/Hint : XviD
Duration : 50mn 34s
Bit rate : 1 600 Kbps
Width : 720 pixels
Height : 352 pixels
Display aspect ratio : 2.045
Frame rate : 25.000 fps
Color space : YUV
Chroma subsampling : 4:2:0
Bit depth : 8 bits
Scan type : Progressive
Compression mode : Lossy
Bits/(Pixel*Frame) : 0.252
Stream size : 579 MiB (89%)
Writing library : XviD 73

Audio
ID : 1
Format : AC-3
Format/Info : Audio Coding 3
Mode extension : CM (complete main)
Codec ID : 2000
Duration : 50mn 34s
Bit rate mode : Constant
Bit rate : 192 Kbps
Channel(s) : 2 channels
Channel positions : Front: L R
Sampling rate : 48.0 KHz
Bit depth : 16 bits
Compression mode : Lossy
Stream size : 69.5 MiB (11%)
Alignment : Split accross interleaves
Interleave, duration : 40 ms (1.00 video frame)
Interleave, preload duration : 500 ms

Когда раздача ведётся путём добавления новых серий, при каждом добавлении создётся новый торрент. Чтобы начать докачку новой серии, пользователям необходимо сделать следующее:
(1) остановить скачивание,
(2) удалить старый торрент у себя из клиента (старые серии удалять не надо),
(3) скачать новый торрент и запустить его у себя в клиенте вместо старого, при этом указать клиенту путь в старую папку, куда и должно происходить скачивание новых серий.
Ваш клиент при этом должен произвести хеширование (проверку) старой папки (если не производит сам - помогите ему сделать это), и будет докачивать только те серии, которых у вас ещё нет. Старые серии при этом не удаляются, а продолжают раздаваться!
Eсли вы уже удалили старые серии, то предотвратить повторную закачку старых серий можно, отжав галочку в соответсвующих местах при запуске нового торрента. По возможности, желательно не удалять старые серии как можно дольше, чтобы релизер не столько продолжал раздавать старые серии, а смог сконцентрироваться на новых.
pb.wtf



Скачать Чёрное море через торрент https://img12.lostpic.net/2020/04/27/541882c695207035b4857efb17fde1c3.jpg Скачать фильм Чёрное море через торрент бесплантно в хорошем качестве Описание: 1944 год. Незадолго до начала Kрымской наступательной операции кораблям Черноморского флота и Азовской флотилии угрожает ... 8.6 10 14
Торрент: Зарегистрирован [2020-05-06 08:53] · скачан: 172 раз
Статус: √ проверено
Размер: 5.16 GB
Как cкачать? Как скачать Чёрное море через торрент | qTorrent

% Раздел Тема Автор DL S | L
Наши сериалы [ 10.58 GB ] Чёрное море / Сезон: 1 / Серии: 1-8 из 8 [2020 шпионский HDTVRip 720p] bober100 Скачать
4 | 0
Наши сериалы [ 5.3 GB ] Чёрное море / Сезон: 1 / Серии: 1-8 из 8 [2020 шпионский SATRip] bober100 Скачать
3 | 0
Наши сериалы [ 6.28 GB ] Чёрное море / Сезон: 1 / Серии: 1-8 из 8 [2020 шпионский HDTVRip-AVC] bober100 Скачать
1 | 0
Наши сериалы [ 22.01 GB ] Чёрное море / Сезон: 1 / Серии: 1-8 из 8 [2020 шпионский HDTV 1080i] bober100 Скачать
3 | 0

28-11-2019 20:33  

Отключить всю рекламу на сайте

    Дорогой пользователь! Огромная просьба, поблагодарите релизера, оцените раздачу и оставьте свои комментарий, если Вы скачали Чёрное море через торрент бесплатно! Внесите свою лепту в развитие PiratBit!
    Комментировать посты могут только пользователи прошедшие не сложную регистрацию
    Показать сообщения:    

    Чёрное море через торрент
    Скачать бесплатно Чёрное море
    Чёрное море скачать торрент
    Чёрное море смотреть онлайн
    Cкачать фильм Чёрное море бесплатно
    Чёрное море скачать торрент в хорошем качестве
    Чёрное море смотреть онлайн бесплатно в хорошем качестве


    Вы не можете начинать темы
    Вы не можете отвечать на сообщения
    Вы не можете редактировать свои сообщения
    Вы не можете удалять свои сообщения
    Вы не можете голосовать в опросах
    Вы не можете прикреплять файлы к сообщениям
    Вы можете скачивать файлы