Ссылка на приватное зеркало нашего сайта всего за 1$. Внимание количество ограничено!!!

2 сезон

iTunes

1 сезон

1

2 сезон

2 сезон

iTunes

1 сезон

RePack

30

Новинка

ВАЖНО

ИГРА 18+

pack

RePack

MK11
pack

Забери бонус

RePack

jed

!!Акция!!

Alien_Rage

RePack

fifa19

RePack

Assassins Creed: Odyssey

RePack

NEED FOR SPEED™ PAYBACK

4 сезон

9 сезон

Бесстыжие 9 сезон

Все сериалы

все сериалы на PB.wtf

RePack

FAR CRY 5
  

Последний серб в Хорватии / Posljednji Srbin u Hrvatskoj (Предраг Личина) [2019 г., ужасы, фантастика, комедия, приключения, WEB-DLRip] DVO ("Синема УС") pb.wtf

Последний серб в Хорватии через торрент pb.wtf

Размер: 1.37 GB | Добавлен: 6 мес. назад | Торрент скачан:64 раза
Скачать  

28-04-2020 07:18 Последний серб в Хорватии Скачать торрент  

Последний серб в Хорватии / Posljednji Srbin u Hrvatskoj
Год выпуска: 2019

Страна: Хорватия

Жанр: Ужасы, фантастика, комедия, приключения

Продолжительность: 01:25:56

Перевод: Любительский (двухголосый)

Режиссер: Предраг Личина

rating

В ролях: Крешимир Микич, Христина Попович, Тиана Лазович, Дадо Чошич, Душан Букан, Марина Редзепович, Божий Навоец, Никса Бутижер, Сергей Трифунович, Северина Вукович

Описание: Хорватия, семь лет после банкротства. В мире идёт борьба - вода стала дороже нефти. Чтобы завладеть ею, сильные мира сего готовы развязать войны, завоевать, уничтожить и даже распространить зомби-вирус. Мико из Загреба, чей ежедневный распорядок дня включает в себя массажные салоны, рестораны и кинотеатры, где он смотрит серию фильмов со своей любимой актрисой Франкой Анич, полностью застигнут врасплох зомби-заражёнными. Тем не менее, он смело отправляется в Одиссею в сопровождении своей героини фильма, имея одну недостижимую цель: выжить.
Качество: WEB-DLRip
Формат: AVI
Видео: XviD, 1883 Кбит/с, 720x304
Аудио: Русский, AC-3, 2 ch, 384 Кбит/с - DVO ("Синема УС)

Видео
Идентификатор : 0
Формат : MPEG-4 Visual
Профиль формата : Advanced Simple@L5
Настройки формата : BVOP2 / Custom Matrix
Параметр BVOP формата : 2
Параметр QPel формата : Нет
Параметр GMC формата : Без точки перехода
Параметр матрицы формата : Выборочная
Идентификатор кодека : XVID
Идентификатор кодека/Подсказка : XviD
Продолжительность : 1 ч. 25 м.
Битрейт : 1883 Кбит/сек
Ширина : 720 пикселей
Высота : 304 пикселя
Соотношение сторон : 2,35:1
Частота кадров : 23,976 (24000/1001) кадра/сек
Цветовое пространство : YUV
Субдискретизация насыщенности : 4:2:0
Битовая глубина : 8 бит
Тип развёртки : Прогрессивная
Метод сжатия : С потерями
Бит/(Пиксели*Кадры) : 0.359
Размер потока : 1,13 Гбайт (83%)
Библиотека кодирования : XviD 1.2.1 (UTC 2008-12-04)

Аудио
Идентификатор : 1
Формат : AC-3
Формат/Информация : Audio Coding 3
Коммерческое название : Dolby Digital
Идентификатор кодека : 2000
Продолжительность : 1 ч. 25 м.
Вид битрейта : Постоянный
Битрейт : 384 Кбит/сек
Каналы : 2 канала
ChannelLayout : L R
Частота : 48,0 КГц
Частота кадров : 31,250 кадров/сек (1536 SPF)
Битовая глубина : 16 бит
Метод сжатия : С потерями
Размер потока : 236 Мбайт (17%)
Выравнивание : Разделение по промежуткам
Продолжительность промежутка : 42 мс. (1,00 видеокадр)
Время предзагрузки промежутка : 500 мс.
ServiceKind/String : Complete Main

скриншот   скриншот   скриншот   скриншот   скриншот  

Присутствуют рекламные вставки!pb.wtf



Скачать Последний серб в Хорватии через торрент http://pic1.kartinco.top/images/12/dog1p.jpg Скачать фильм Последний серб в Хорватии через торрент бесплантно в хорошем качестве Описание: Хорватия, семь лет после банкротства. В мире идёт борьба - вода стала дороже нефти. Чтобы завладеть ею, сильные мира сего готовы ... 10 10 1
Торрент: Зарегистрирован [2020-04-28 07:18] · скачан: 64 раз
Статус: T временная
Размер: 1.37 GB
Как cкачать? Как скачать Последний серб в Хорватии через торрент | qTorrent

28-11-2019 20:33  

Отключить всю рекламу на сайте

28-04-2020 19:56 Последний серб в Хорватии Скачать торрент  

как фильм народ?)pb.wtf



    Дорогой пользователь! Огромная просьба, поблагодарите релизера, оцените раздачу и оставьте свои комментарий, если Вы скачали Последний серб в Хорватии через торрент бесплатно! Внесите свою лепту в развитие PiratBit!
    Комментировать посты могут только пользователи прошедшие не сложную регистрацию
    Показать сообщения:    

    Последний серб в Хорватии через торрент
    Скачать бесплатно Последний серб в Хорватии
    Последний серб в Хорватии скачать торрент
    Последний серб в Хорватии смотреть онлайн
    Cкачать фильм Последний серб в Хорватии бесплатно
    Последний серб в Хорватии скачать торрент в хорошем качестве
    Последний серб в Хорватии смотреть онлайн бесплатно в хорошем качестве


    Вы не можете начинать темы
    Вы не можете отвечать на сообщения
    Вы не можете редактировать свои сообщения
    Вы не можете удалять свои сообщения
    Вы не можете голосовать в опросах
    Вы не можете прикреплять файлы к сообщениям
    Вы можете скачивать файлы