Ссылка на приватное зеркало нашего сайта всего за 1$. Внимание количество ограничено!!!

2 сезон

iTunes

1 сезон

1

iTunes

iTunes

iTunes

1 сезон

RePack

30

ИГРА 18+

pack

ВАЖНО

!!Акция!!

Alien_RageХит недели

RePack

MK11
pack

Забери бонус

RePack

jed

!!Акция!!

Alien_Rage

RePack

fifa19

RePack

Assassins Creed: Odyssey

RePack

NEED FOR SPEED™ PAYBACK

4 сезон

9 сезон

Бесстыжие 9 сезон

Все сериалы

все сериалы на PB.wtf

RePack

FAR CRY 5
  

Закрытый сезон / Сезон: 1 / Серии: 1-8 из 8 (Дарья Полторацкая) [2020, Мелодрама, детектив, WEB-DL 720p] pb.wtf

Закрытый сезон через торрент pb.wtf

Размер: 9.25 GB | Добавлен: 4 мес. 19 д. назад | Торрент скачан:12 раз
Скачать  

28-04-2020 10:25 Закрытый сезон Скачать торрент  

Закрытый сезон
Год выпуска: 2020
Страна: Россия
Жанр: Мелодрама, детектив
Продолжительность: ~ 00:50:00
Субтитры: отсутствуют

Режиссер: Дарья Полторацкая



В ролях: Дарья Урсуляк, Кирилл Гребенщиков, Пётр Баранчеев, Максим Битюков, Нелли Уварова, Марина Доможирова, Юлия Яблонская, Артём Осипов, Зураб Миминошвили, Тимур Базинский, Сергей Козик, Елена Оболенская-Белевич, Дарья Шевчук, Артем Мельничук, Дмитрий Янышевский, Олег Руденко-Травин, Михаил Липкин

Описание: Небольшой южный городок на море. Уютные кафе на набережной, домашнее вино «на розлив», платная рыбалка на катерах. Есть в городе и свои «знаковые фигуры»: это Глеб Валентинович – полулегальный бизнесмен, владелец ресторанчиков и киосков, и Сергей Воронец – начальник отделения полиции, с тех же заведений имеющий «процент» за спокойную жизнь. Городок живёт ленивой и приятной жизнью до тех пор, пока не происходят несколько странных смертей – вчера еще здоровые люди умирают за пару часов. В город вызывают эпидемиолога из столицы. Глеб с «командой» пытаются его перехватить и подкупить: совсем не в их интересах, чтобы закрыли сезон. Но Евгений Левин оказывается принципиальным. Впрочем, своей преданностью делу и готовностью влезть в любую драку он вскоре заставит Глеба себя уважать. Глеб не знает одного: Женя – тот самый мужчина, из-за разрыва с которым когда-то уехала из Москвы его молодая жена.

Качество: WEB-DL 720p
Формат: MKV

Видео: 1280х720, (16:9), 25 fps, AVC MPEG-4 (x264), High@L4.1 ~ 3000 kbps , 0.130 bit/pixel
Аудио: 48.0 kHz, AC3 Dolby Digital, 2/0 (L,R) ch, ~ 192 kbps
скриншот  скриншот  скриншот  скриншот  

Общее
Уникальный идентификатор : 188706467289058449773000768843353504636 (0x8DF78B29B5113F8BAD934605548D3B7C)
Полное имя : C:\Zakrytyy.sezon.e01.2020.WEB-DL.(720p).Getty.mkv
Формат : Matroska
Версия формата : Version 4
Размер файла : 1,15 Гбайт
Продолжительность : 51 м. 45 с.
Общий поток : 3 182 Кбит/сек
Название фильма : Zakrytyy.sezon.e01.2020.WEB-DL.(720p).Getty
Дата кодирования : UTC 2020-04-28 09:22:17
Программа кодирования : mkvmerge v7.8.0 ('River Man') 32bit built on Mar 27 2015 16:18:02
Библиотека кодирования : libebml v1.3.1 + libmatroska v1.4.2

Видео
Идентификатор : 1
Формат : AVC
Формат/Информация : Advanced Video Codec
Профиль формата : High@L4.1
Настройки формата : CABAC / 5 Ref Frames
Параметр CABAC формата : Да
Параметр RefFrames формата : 5 кадров
Идентификатор кодека : V_MPEG4/ISO/AVC
Продолжительность : 51 м. 45 с.
Битрейт : 3 000 Кбит/сек
Ширина : 1 280 пикселей
Высота : 720 пикселей
Соотношение сторон : 16:9
Режим частоты кадров : Постоянный
Частота кадров : 25,000 кадров/сек
Цветовое пространство : YUV
Субдискретизация насыщенности : 4:2:0
Битовая глубина : 8 бит
Тип развёртки : Прогрессивная
Бит/(Пиксели*Кадры) : 0.130
Размер потока : 1,08 Гбайт (94%)
Default : Да
Forced : Нет
Цветовой диапазон : Limited
Основные цвета : BT.709
Коэффициенты матрицы : BT.709

Аудио
Идентификатор : 2
Формат : AC-3
Формат/Информация : Audio Coding 3
Коммерческое название : Dolby Digital
Идентификатор кодека : A_AC3
Продолжительность : 51 м. 45 с.
Вид битрейта : Постоянный
Битрейт : 192 Кбит/сек
Каналы : 2 канала
Channel layout : L R
Частота : 48,0 КГц
Частота кадров : 31,250 кадров/сек (1536 SPF)
Метод сжатия : С потерями
Размер потока : 71,1 Мбайт (6%)
Service kind : Complete Main
Default : Да
Forced : Нет

Когда раздача ведётся путём добавления новых серий, при каждом добавлении создётся новый торрент. Чтобы начать докачку новой серии, пользователям необходимо сделать следующее:
(1) остановить скачивание,
(2) удалить старый торрент у себя из клиента (старые серии удалять не надо),
(3) скачать новый торрент и запустить его у себя в клиенте вместо старого, при этом указать клиенту путь в старую папку, куда и должно происходить скачивание новых серий.
Ваш клиент при этом должен произвести хеширование (проверку) старой папки (если не производит сам - помогите ему сделать это), и будет докачивать только те серии, которых у вас ещё нет. Старые серии при этом не удаляются, а продолжают раздаваться!
Eсли вы уже удалили старые серии, то предотвратить повторную закачку старых серий можно, отжав галочку в соответсвующих местах при запуске нового торрента. По возможности, желательно не удалять старые серии как можно дольше, чтобы релизер не столько продолжал раздавать старые серии, а смог сконцентрироваться на новых.
pb.wtf



Скачать Закрытый сезон через торрент https://img12.lostpic.net/2020/04/28/12d902ef6ed158b5349f4d5fb638892b.jpg Скачать фильм Закрытый сезон через торрент бесплантно в хорошем качестве Описание: Небольшой южный городок на море. Уютные кафе на набережной, домашнее вино «на розлив», платная рыбалка на катерах. Есть в городе ... 10 10 5
Торрент: Зарегистрирован [2020-06-09 16:01] · скачан: 12 раз
Статус: √ проверено
Размер: 9.25 GB
Как cкачать? Как скачать Закрытый сезон через торрент | qTorrent

% Раздел Тема Автор DL S | L
Наши сериалы [ 5.21 GB ] Закрытый сезон / Серии: 1-8 из 8 [2020 WEBRip-AVC] aleksan55 Скачать
2 | 0
Наши сериалы [ 4.36 GB ] Закрытый сезон / Сезон: 1 / Серии: 1-8 из 8 [2020 Мело WEB-DLRip] bober100 Скачать
1 | 0
Наши сериалы [ 5.21 GB ] Закрытый сезон / Сезон: 1 / Серии: 1-8 из 8 [2020 Мело WEB-DLRip-AVC] bober100 Скачать
1 | 0
Наши сериалы [ 10.71 GB ] Закрытый сезон / Сезон: 1 / Серии: 1-8 из 8 [2020 Мело WEB-DL 1080p] bober100 Скачать
2 | 0
Наши сериалы [ 4.69 GB ] Закрытый сезон / Сезон: 1 / Серии: 1-8 из 8 [2020 Мело WEB-DLRip] bober100 Скачать
1 | 0

28-11-2019 20:33  

Отключить всю рекламу на сайте

    Дорогой пользователь! Огромная просьба, поблагодарите релизера, оцените раздачу и оставьте свои комментарий, если Вы скачали Закрытый сезон через торрент бесплатно! Внесите свою лепту в развитие PiratBit!
    Комментировать посты могут только пользователи прошедшие не сложную регистрацию
    Показать сообщения:    

    Закрытый сезон через торрент
    Скачать бесплатно Закрытый сезон
    Закрытый сезон скачать торрент
    Закрытый сезон смотреть онлайн
    Cкачать фильм Закрытый сезон бесплатно
    Закрытый сезон скачать торрент в хорошем качестве
    Закрытый сезон смотреть онлайн бесплатно в хорошем качестве


    Вы не можете начинать темы
    Вы не можете отвечать на сообщения
    Вы не можете редактировать свои сообщения
    Вы не можете удалять свои сообщения
    Вы не можете голосовать в опросах
    Вы не можете прикреплять файлы к сообщениям
    Вы можете скачивать файлы