2 сезон

iTunes

MVO

1

2 сезон

iTunes

iTunes

1 сезон

RePack

30

Новинка

ВАЖНО

ИГРА 18+

pack

RePack

MK11
pack

Легкие деньги

RePack

jed

RePack

fifa19

RePack

RDR2

RePack

NEED FOR SPEED™ PAYBACK

4 сезон

9 сезон

Бесстыжие 9 сезон

Все сериалы

все сериалы на PB.wtf

RePack

FAR CRY 5

Anonymous, доброе утро, мы не успеваем собрать деньги на оплату серверов за декабрь и январь, помогите нам пожалуйста в это трудное время. В качестве благодарности мы отключим Вам всю рекламу на сайте (укажите свой ник в строку Ваше имя)!

×
  
Magnet ссылка

Звездные войны: Скайуокер. Восход / Star Wars: Episode IX - The Rise of Skywalker (Джей Джей Абрамс) [2019 г., Фантастика, фэнтези, боевик, приключения, BDRip 720p / 60 FPS, Дубляж] от R.G. HD-Films pb.wtf

Звездные войны: Скайуокер. Восход через торрент pb.wtf

Раздают: 2 [ 10 KB/s ]
Размер: 4.47 GB | Добавлен: 8 мес. назад | Торрент скачан:116 раз
Скачать  

28-04-2020 11:30 Звездные войны: Скайуокер. Восход Скачать торрент  

Звёздные войны: Скайуокер. Восход / Star Wars: Episode IX - The Rise of Skywalker
Год выпуска: : 2019
Страна: : США
Жанр: : Фантастика, фэнтези, боевик, приключения
Продолжительность: 02:31:52
Перевод: Дубляж
Субтитры: Russian, English

Режиссер: Джей Джей Абрамс

Премьера в мире: 16 декабря 2019

rating

В ролях: Дэйзи Ридли, Адам Драйвер, Кэрри Фишер, Марк Хэмилл, Джон Бойега, Оскар Айзек, Энтони Дэниелс, Наоми Аки, Донал Глисон, Ричард Э. Грант


Сюжет фильма: Фильм завершает невероятную историю семьи Скайуокеров, длящуюся уже более сорока лет, и обещает дать ответы на все загадки из предыдущих серий. Зрителя ожидают старые и новые герои, уникальные миры, увлекательные путешествия на край Галактики и грандиозный финал фантастической саги.

Качество видео: BDRip 720p / 60 FPS
Формат: MKV
Видео кодек: H.264
Аудио кодек: AC3
Видео : x264, 1280 x 536 ( 2,40:1 ), 4131 kbps, 60,000 fps, ( 0.100 bpp)
Аудио : Русский, AC-3, 48.0 KHz, 6 ch, 384 Kbps
Кто-то писал:
Дорожка № 1 сделана из оригинальной DTS-HD MA, 7.1 и дублированной Dolby Digital дорожек путём замены всех участков с английской речью, отголосками и эхом на аналогичные с дублированной дорожки во всех каналах. За нее спасибо - krat11.
Релиз от:

скриншот   скриншот   скриншот   скриншот   скриншот   скриншот  Автор рипа: slaventi-69
x264 [info]: frame I:3429 Avg QP:16.55 size: 70995
x264 [info]: frame P:119097 Avg QP:17.79 size: 19337
x264 [info]: frame B:387742 Avg QP:20.41 size: 4759
x264 [info]: consecutive B-frames: 1.9% 3.1% 8.6% 14.6% 62.5% 9.3%


Общее
Уникальный идентификатор : 166017071151955887852079877086931862776 (0x7CE5B9907F46737F218538AF387444F8)
Полное имя : F:\Star.Wars.Episode.IX-The.Rise.of.Skywalker.(2019).BDRip.720p.(60 Fps).mkv
Формат : Matroska
Версия формата : Version 4
Размер файла : 4,47 Гбайт
Продолжительность : 2 ч. 21 м.
Общий поток : 4519 Кбит/сек
Название фильма : Звёздные войны: Скайуокер. Восход / Star Wars: Episode IX - The Rise of Skywalker (2019) BDRip 720p (60 Fps)
Дата кодирования : UTC 2020-04-27 08:05:13
Программа кодирования : mkvmerge v42.0.0 ('Overtime') 64-bit
Библиотека кодирования : libebml v1.3.10 + libmatroska v1.5.2

Видео
Идентификатор : 1
Формат : AVC
Формат/Информация : Advanced Video Codec
Профиль формата : High@L4.1
Настройки формата : CABAC / 8 Ref Frames
Параметр CABAC формата : Да
Параметр RefFrames формата : 8 кадров
Идентификатор кодека : V_MPEG4/ISO/AVC
Продолжительность : 2 ч. 21 м.
Битрейт : 4131 Кбит/сек
Ширина : 1280 пикселей
Высота : 536 пикселей
Соотношение сторон : 2,40:1
Режим частоты кадров : Постоянный
Частота кадров : 60,000 кадров/сек
Цветовое пространство : YUV
Субдискретизация насыщенности : 4:2:0
Битовая глубина : 8 бит
Тип развёртки : Прогрессивная
Бит/(Пиксели*Кадры) : 0.100
Размер потока : 4,09 Гбайт (91%)
Заголовок : slaventi-69 ( R.G. HD-Films | 60 fps )
Библиотека кодирования : x264 core 130 r2273 b3065e6
Настройки программы : cabac=1 / ref=8 / deblock=1:-1:-1 / analyse=0x3:0x133 / me=umh / subme=9 / psy=1 / psy_rd=1.00:0.00 / mixed_ref=1 / me_range=26 / chroma_me=1 / trellis=2 / 8x8dct=1 / cqm=0 / deadzone=21,11 / fast_pskip=0 / chroma_qp_offset=-2 / threads=6 / lookahead_threads=1 / sliced_threads=0 / nr=0 / decimate=1 / interlaced=0 / bluray_compat=0 / constrained_intra=0 / bframes=5 / b_pyramid=2 / b_adapt=2 / b_bias=0 / direct=3 / weightb=1 / open_gop=0 / weightp=2 / keyint=250 / keyint_min=25 / scenecut=40 / intra_refresh=0 / rc=crf / mbtree=0 / crf=17.2 / qcomp=0.60 / qpmin=0 / qpmax=69 / qpstep=4 / ip_ratio=1.40 / pb_ratio=1.30 / aq=1:1.00
Язык : English
Default : Да
Forced : Нет

Аудио
Идентификатор : 2
Формат : AC-3
Формат/Информация : Audio Coding 3
Коммерческое название : Dolby Digital
Идентификатор кодека : A_AC3
Продолжительность : 2 ч. 21 м.
Вид битрейта : Постоянный
Битрейт : 384 Кбит/сек
Каналы : 6 каналов
Channel layout : L R C LFE Ls Rs
Частота : 48,0 КГц
Частота кадров : 31,250 кадров/сек (1536 SPF)
Битовая глубина : 16 бит
Метод сжатия : С потерями
Размер потока : 389 Мбайт (8%)
Заголовок : Дубляж, Custom
Язык : Russian
ServiceKind/String : Complete Main
Default : Да
Forced : Нет

Текст #1
Идентификатор : 3
Формат : UTF-8
Идентификатор кодека : S_TEXT/UTF8
Идентификатор кодека/Информация : UTF-8 Plain Text
Продолжительность : 1 ч. 37 м.
Битрейт : 1 бит/сек
ElementCount : 10
Размер потока : 938 байт (0%)
Заголовок : Forced
Язык : Russian
Default : Да
Forced : Нет

Текст #2
Идентификатор : 4
Формат : UTF-8
Идентификатор кодека : S_TEXT/UTF8
Идентификатор кодека/Информация : UTF-8 Plain Text
Продолжительность : 2 ч. 17 м.
Битрейт : 57 бит/сек
ElementCount : 1435
Размер потока : 58,1 Кбайт (0%)
Заголовок : Full
Язык : Russian
Default : Нет
Forced : Нет

Текст #3
Идентификатор : 5
Формат : UTF-8
Идентификатор кодека : S_TEXT/UTF8
Идентификатор кодека/Информация : UTF-8 Plain Text
Продолжительность : 2 ч. 11 м.
Битрейт : 73 бит/сек
ElementCount : 1764
Размер потока : 71,1 Кбайт (0%)
Заголовок : SDH
Язык : Russian
Default : Нет
Forced : Нет

Текст #4
Идентификатор : 6
Формат : UTF-8
Идентификатор кодека : S_TEXT/UTF8
Идентификатор кодека/Информация : UTF-8 Plain Text
Продолжительность : 2 ч. 11 м.
Битрейт : 39 бит/сек
ElementCount : 1460
Размер потока : 37,9 Кбайт (0%)
Заголовок : Full
Язык : English
Default : Нет
Forced : Нет

Текст #5
Идентификатор : 7
Формат : UTF-8
Идентификатор кодека : S_TEXT/UTF8
Идентификатор кодека/Информация : UTF-8 Plain Text
Продолжительность : 2 ч. 11 м.
Битрейт : 48 бит/сек
ElementCount : 1895
Размер потока : 47,1 Кбайт (0%)
Заголовок : SDH
Язык : English
Default : Нет
Forced : Нет

Меню
00:00:00.000 : en:Глава 01
00:00:09.176 : en:Глава 02
00:01:40.934 : en:Глава 03
00:03:47.811 : en:Глава 04
00:06:42.902 : en:Глава 05
00:08:26.673 : en:Глава 06
00:10:04.896 : en:Глава 07
00:12:48.142 : en:Глава 08
00:13:54.000 : en:Глава 09
00:15:17.416 : en:Глава 10
00:17:13.199 : en:Глава 11
00:19:25.039 : en:Глава 12
00:21:28.579 : en:Глава 13
00:25:27.693 : en:Глава 14
00:27:14.883 : en:Глава 15
00:30:41.548 : en:Глава 16
00:35:49.064 : en:Глава 17
00:41:37.745 : en:Глава 18
00:43:15.259 : en:Глава 19
00:45:28.351 : en:Глава 20
00:48:24.568 : en:Глава 21
00:54:37.566 : en:Глава 22
00:58:49.192 : en:Глава 23
01:02:54.771 : en:Глава 24
01:06:23.104 : en:Глава 25
01:09:54.607 : en:Глава 26
01:13:07.383 : en:Глава 27
01:18:23.616 : en:Глава 28
01:23:41.225 : en:Глава 29
01:27:02.884 : en:Глава 30
01:30:23.126 : en:Глава 31
01:35:00.820 : en:Глава 32
01:38:47.880 : en:Глава 33
01:40:35.863 : en:Глава 34
01:43:03.135 : en:Глава 35
01:45:27.863 : en:Глава 36
01:48:48.188 : en:Глава 37
01:53:27.634 : en:Глава 38
01:55:30.757 : en:Глава 39
01:59:02.969 : en:Глава 40
02:01:37.749 : en:Глава 41
02:05:20.430 : en:Глава 42
02:09:42.692 : en:Глава 43
02:12:25.896 : en:Глава 44

Просьба к переливающим на другие сайты, в оформлении указывайте пожалуйста авторство группы R.G. HD-Films pb.wtf



Скачать Звездные войны: Скайуокер. Восход через торрент http://a.radikal.ru/a38/2003/30/e446b7facb3a.jpg Скачать фильм Звездные войны: Скайуокер. Восход через торрент бесплантно в хорошем качестве В ролях: Дэйзи Ридли, Адам Драйвер, Кэрри Фишер, Марк Хэмилл, Джон Бойега, Оскар Айзек, Энтони Дэниелс, Наоми Аки, Донал Глисон, Ричард Э. ... 10 10 6
Торрент: Зарегистрирован [2020-04-28 11:30] · скачан: 116 раз
Статус: √ проверено
Размер: 4.47 GB
Как cкачать? Как скачать Звездные войны: Скайуокер. Восход через торрент | UTorrent

28-11-2019 20:33  

Отключить всю рекламу на сайте


    Дорогой пользователь! Огромная просьба, поблагодарите релизера, оцените раздачу и оставьте свои комментарий, если Вы скачали Звездные войны: Скайуокер. Восход через торрент бесплатно! Внесите свою лепту в развитие PiratBit!
    Комментировать посты могут только пользователи прошедшие не сложную регистрацию
    Показать сообщения:    

    Звездные войны: Скайуокер. Восход через торрент
    Скачать бесплатно Звездные войны: Скайуокер. Восход
    Звездные войны: Скайуокер. Восход скачать торрент
    Звездные войны: Скайуокер. Восход смотреть онлайн
    Cкачать фильм Звездные войны: Скайуокер. Восход бесплатно
    Звездные войны: Скайуокер. Восход скачать торрент в хорошем качестве
    Звездные войны: Скайуокер. Восход смотреть онлайн бесплатно в хорошем качестве


    Вы не можете начинать темы
    Вы не можете отвечать на сообщения
    Вы не можете редактировать свои сообщения
    Вы не можете удалять свои сообщения
    Вы не можете голосовать в опросах
    Вы не можете прикреплять файлы к сообщениям
    Вы можете скачивать файлы