Ссылка на приватное зеркало всего за 1$. Внимание количество ограничено!!!

iTunes

iTunes

iTunes

1

iTunes

iTunes

iTunes

iTunes

iTunes

30
pack

$ от Little Big

ВАЖНО

!!Акция!!

Alien_RageХит недели

RePack

Resident Evil 21

ИГРА 18+

pack

RePack

jed

!!Акция!!

Alien_Rage

RePack

fifa19

RePack

Assassins Creed: Odyssey

RePack

NEED FOR SPEED™ PAYBACK

4 сезон

9 сезон

Бесстыжие 9 сезон

Все сериалы

все сериалы на PB.wtf

RePack

FAR CRY 5
  

Странники терпенья (Владимир Алеников) [2018 г., триллер, драма, WEB-DLRip] pb.wtf

Странники терпенья через торрент pb.wtf

Размер: 1.37 GB | Добавлен: 1 мес. 6 д. назад | Торрент скачан:67 раз
Скачать  

28-04-2020 14:35 Странники терпенья Скачать торрент  

Странники терпенья
Год выпуска: 2018

Страна: Россия

Жанр: Триллер, драма

Продолжительность: 01:40:11

Режиссер: Владимир Алеников



В ролях: Константин Лавроненко, Майя Шопа, Александр Рапопорт, Наталия Фиссон, Ольга Страда, Ирина Фролова, Павел Демьянов, Варвара Рябова, Евгений Данчевский, Александр Конев

Описание: Модный преуспевающий фотограф Андрей Берг готовится к самой важной выставке в своей жизни. Он снова должен удивлять и доказывать, что на голову выше конкурентов. Как подарок судьбы он воспринимает свою встречу с юной глухонемой актрисой Мариной, которая оказывается прирожденной моделью. Одержимый поиском идеального кадра, Александр снова и снова продлевает фотосессию. Скоро девушка понимает, что стала заложницей творческих амбиций художника и романтическая история переходит в настоящий напряжённый триллер. Кто из героев одержит победу в этом смертоносном поединке? Что окажется важнее - любовь или ненависть?
Качество: WEB-DLRip
Формат: AVI
Видео: XviD, 1561 Кбит/с, 720x368
Аудио: Русский, AC-3, 2 ch, 384 Кбит/с
Семпл: http://sendfile.su/1558374
Видео
Идентификатор : 0
Формат : MPEG-4 Visual
Профиль формата : Advanced Simple@L5
Настройки формата : BVOP2 / Custom Matrix
Параметр BVOP формата : 2
Параметр QPel формата : Нет
Параметр GMC формата : Без точки перехода
Параметр матрицы формата : Выборочная
Идентификатор кодека : XVID
Идентификатор кодека/Подсказка : XviD
Продолжительность : 1 ч. 40 м.
Битрейт : 1561 Кбит/сек
Ширина : 720 пикселей
Высота : 368 пикселей
Соотношение сторон : 1,957
Частота кадров : 23,976 (24000/1001) кадра/сек
Цветовое пространство : YUV
Субдискретизация насыщенности : 4:2:0
Битовая глубина : 8 бит
Тип развёртки : Прогрессивная
Метод сжатия : С потерями
Бит/(Пиксели*Кадры) : 0.246
Размер потока : 1,09 Гбайт (80%)
Библиотека кодирования : XviD 1.2.1 (UTC 2008-12-04)

Аудио
Идентификатор : 1
Формат : AC-3
Формат/Информация : Audio Coding 3
Коммерческое название : Dolby Digital
Идентификатор кодека : 2000
Продолжительность : 1 ч. 40 м.
Вид битрейта : Постоянный
Битрейт : 384 Кбит/сек
Каналы : 2 канала
ChannelLayout : L R
Частота : 48,0 КГц
Частота кадров : 31,250 кадров/сек (1536 SPF)
Битовая глубина : 16 бит
Метод сжатия : С потерями
Размер потока : 275 Мбайт (20%)
Выравнивание : Разделение по промежуткам
Продолжительность промежутка : 42 мс. (1,00 видеокадр)
Время предзагрузки промежутка : 500 мс.
ServiceKind/String : Complete Main

скриншот   скриншот   скриншот   скриншот  

Присутствуют рекламные вставки!pb.wtf



Скачать Странники терпенья через торрент http://pic1.kartinco.top/images/12/opouq.jpg Скачать фильм Странники терпенья через торрент бесплантно в хорошем качестве Описание: Модный преуспевающий фотограф Андрей Берг готовится к самой важной выставке в своей жизни. Он снова должен удивлять и доказывать, ... 10 10 3
Торрент: Зарегистрирован [2020-04-28 14:35] · скачан: 67 раз
Статус: ∑ поглощено
Размер: 1.37 GB
Как cкачать? Как скачать Странники терпенья через торрент | qTorrent

% Раздел Тема Автор DL S | L
T Наши фильмы (HD, WEB-DL 720p, 1080p) [ 3.7 GB ] Странники терпенья [2018 WEB-DL 1080p] bober100 Скачать
8 | 0
T Наши новые фильмы 2018-2019 [ 1.46 GB ] Странники терпенья [2018 WEB-DLRip] bober100 Скачать
6 | 0

28-11-2019 20:33  

Отключить всю рекламу на сайте

03-06-2020 16:10 Странники терпенья Скачать торрент  

    Дорогой пользователь! Огромная просьба, поблагодарите релизера, оцените раздачу и оставьте свои комментарий, если Вы скачали Странники терпенья через торрент бесплатно! Внесите свою лепту в развитие PiratBit!
    Комментировать посты могут только пользователи прошедшие не сложную регистрацию
    Показать сообщения:    

    Странники терпенья через торрент
    Скачать бесплатно Странники терпенья
    Странники терпенья скачать торрент
    Странники терпенья смотреть онлайн
    Cкачать фильм Странники терпенья бесплатно
    Странники терпенья скачать торрент в хорошем качестве
    Странники терпенья смотреть онлайн бесплатно в хорошем качестве


    Вы не можете начинать темы
    Вы не можете отвечать на сообщения
    Вы не можете редактировать свои сообщения
    Вы не можете удалять свои сообщения
    Вы не можете голосовать в опросах
    Вы не можете прикреплять файлы к сообщениям
    Вы можете скачивать файлы