2 сезон

iTunes

MVO

1

2 сезон

iTunes

iTunes

1 сезон

RePack

30

Новинка

ВАЖНО

ИГРА 18+

pack

RePack

MK11
pack

Легкие деньги

RePack

jed

RePack

fifa19

RePack

RDR2

RePack

NEED FOR SPEED™ PAYBACK

4 сезон

9 сезон

Бесстыжие 9 сезон

Все сериалы

все сериалы на PB.wtf

RePack

FAR CRY 5

Anonymous, добрый день, мы не успеваем собрать деньги на оплату серверов за декабрь и январь, помогите нам пожалуйста в это трудное время. В качестве благодарности мы отключим Вам всю рекламу на сайте (укажите свой ник в строку Ваше имя)!

×
  
Magnet ссылка

Форсаж: Хоббс и Шоу в 3D / Fast & Furious Presents: Hobbs & Shaw in 3D (Дэвид Литч) [2019, боевик, приключения, BDRip 1080p, Дубляж Лицензия ] Анаглиф (Дюбуа) pb.wtf

Форсаж: Хоббс и Шоу в 3D через торрент pb.wtf

Размер: 8.09 GB | Добавлен: 8 мес. назад | Торрент скачан:3 раза
Скачать  

28-04-2020 15:35 Форсаж: Хоббс и Шоу в 3D Скачать торрент  

Форсаж: Хоббс и Шоу в 3D/ Fast & Furious Presents: Hobbs & Shaw in 3D
Год выпуска: : 2019
Страна: : США
Жанр: : боевик, приключения
Продолжительность: 02:15:54
Перевод: Дубляж
Субтитры: русские ( форс.), русские (BD EUR), украинские (Forced), английские (Full), английские (SDH)

Режиссер: Дэвид Литч

Бюджет: $200 000 000
Премьера в мире: 13 июля 2019

rating

В ролях: Дуэйн Джонсон, Джейсон Стэйтем, Ванесса Кирби, Идрис Эльба, Эдди Марсан, Хелен Миррен, Райан Рейнольдс, Эйса Гонсалес, Клифф Кёртис, Элиана Суа


Сюжет фильма: Люк Хоббс — американский элитный спецагент, он любит удобную спортивную одежду, большие пикапы и здоровое питание. Декард Шоу — британский пижон, бывший сотрудник разведки, предпочитает дорогие костюмы, спортивные авто и пабы.
Эти двое терпеть друг друга не могут. Но если кто-то угрожает их семьям, они готовы пойти на всё. Даже на работу в команде.

Доп. информация: Формат 3D: Анаглиф (Дюбуа)



Качество видео: BDRip 1080p
Формат: MKV
Видео кодек: H.264
Аудио кодек: AC3
Видео : AVC, 1920x1080 (16:9), 7242 kbps, 23,976 fps, 0.146 bpp
Аудио : Русский / AC3 / 48 KHz / 5.1 ch / 640 Kbps (Дубляж - BD UHD Eur) (концовка адаптирована под BD 3D версию)
Аудио : Украинский / AC3 / 48 KHz / 2 ch / 192 Kbps (Дубляж)
Аудио : Английский / AC3 / 48 KHz / 5.1 ch / 448 Kbps (Original - BD 3D)
Релиз от:

скриншот   скриншот   скриншот   скриншот   скриншот   скриншот  Автор рипа: slaventi-69
x264 [info]: frame I:2441 Avg QP:12.85 size:150932
x264 [info]: frame P:54710 Avg QP:13.95 size: 65879
x264 [info]: frame B:138400 Avg QP:15.80 size: 24641
x264 [info]: consecutive B-frames: 4.0% 7.1% 15.0% 37.7% 36.1%


Общее
Уникальный идентификатор : 311156800141070125268070794806772406123 (0xEA169EB0663A64EE00307E472C6C976B)
Полное имя : F:\Fast.&.Furious.Presents.Hobbs.&.Shaw.(2019).3D.(Anaglyph_Dubois).mkv
Формат : Matroska
Версия формата : Version 4
Размер файла : 8,09 Гбайт
Продолжительность : 2 ч. 15 м.
Общий поток : 8524 Кбит/сек
Название фильма : Форсаж: Хоббс и Шоу / Fast & Furious Presents: Hobbs & Shaw (2019) in 3D (Anaglyph_Dubois)
Дата кодирования : UTC 2020-04-28 08:42:04
Программа кодирования : mkvmerge v42.0.0 ('Overtime') 64-bit
Библиотека кодирования : libebml v1.3.10 + libmatroska v1.5.2

Видео
Идентификатор : 1
Формат : AVC
Формат/Информация : Advanced Video Codec
Профиль формата : High@L4.1
MultiView_Count : 2
MultiView_Layout : Anaglyph (cyan/red)
Настройки формата : CABAC / 4 Ref Frames
Параметр CABAC формата : Да
Параметр RefFrames формата : 4 кадра
Идентификатор кодека : V_MPEG4/ISO/AVC
Продолжительность : 2 ч. 15 м.
Битрейт : 7242 Кбит/сек
Ширина : 1920 пикселей
Высота : 1080 пикселей
Соотношение сторон : 16:9
Режим частоты кадров : Постоянный
Частота кадров : 23,976 кадра/сек
Цветовое пространство : YUV
Субдискретизация насыщенности : 4:2:0
Битовая глубина : 8 бит
Тип развёртки : Прогрессивная
Бит/(Пиксели*Кадры) : 0.146
Размер потока : 6,88 Гбайт (85%)
Заголовок : slaventi-69 ( R.G. HD-Films ) 3Д (Anaglyph_Dubois)
Библиотека кодирования : x264 core 130 r2273 b3065e6
Настройки программы : cabac=1 / ref=4 / deblock=1:-1:-1 / analyse=0x3:0x133 / me=umh / subme=9 / psy=1 / psy_rd=1.00:0.00 / mixed_ref=1 / me_range=26 / chroma_me=1 / trellis=2 / 8x8dct=1 / cqm=0 / deadzone=21,11 / fast_pskip=0 / chroma_qp_offset=-2 / threads=6 / lookahead_threads=1 / sliced_threads=0 / nr=0 / decimate=1 / interlaced=0 / bluray_compat=0 / constrained_intra=0 / bframes=4 / b_pyramid=2 / b_adapt=2 / b_bias=0 / direct=3 / weightb=1 / open_gop=0 / weightp=2 / keyint=250 / keyint_min=25 / scenecut=40 / intra_refresh=0 / rc=crf / mbtree=0 / crf=19.5 / qcomp=0.60 / qpmin=0 / qpmax=69 / qpstep=4 / ip_ratio=1.40 / pb_ratio=1.30 / aq=1:1.00
Язык : English
Default : Да
Forced : Нет

Аудио #1
Идентификатор : 2
Формат : AC-3
Формат/Информация : Audio Coding 3
Коммерческое название : Dolby Digital
Идентификатор кодека : A_AC3
Продолжительность : 2 ч. 15 м.
Вид битрейта : Постоянный
Битрейт : 640 Кбит/сек
Каналы : 6 каналов
Channel layout : L R C LFE Ls Rs
Частота : 48,0 КГц
Частота кадров : 31,250 кадров/сек (1536 SPF)
Битовая глубина : 16 бит
Метод сжатия : С потерями
Размер потока : 622 Мбайт (8%)
Заголовок : Дубляж [BD UHD Eur] (адаптирован под BD 3D - Ash61)
Язык : Russian
ServiceKind/String : Complete Main
Default : Да
Forced : Нет

Аудио #2
Идентификатор : 3
Формат : AC-3
Формат/Информация : Audio Coding 3
Коммерческое название : Dolby Digital
Идентификатор кодека : A_AC3
Продолжительность : 2 ч. 15 м.
Вид битрейта : Постоянный
Битрейт : 192 Кбит/сек
Каналы : 2 канала
Channel layout : L R
Частота : 48,0 КГц
Частота кадров : 31,250 кадров/сек (1536 SPF)
Битовая глубина : 16 бит
Метод сжатия : С потерями
Размер потока : 187 Мбайт (2%)
Заголовок : Дубляж (адаптирован под BD 3D)
Язык : Ukrainian
ServiceKind/String : Complete Main
Default : Нет
Forced : Нет

Аудио #3
Идентификатор : 4
Формат : AC-3
Формат/Информация : Audio Coding 3
Коммерческое название : Dolby Digital
Идентификатор кодека : A_AC3
Продолжительность : 2 ч. 15 м.
Вид битрейта : Постоянный
Битрейт : 448 Кбит/сек
Каналы : 6 каналов
Channel layout : L R C LFE Ls Rs
Частота : 48,0 КГц
Частота кадров : 31,250 кадров/сек (1536 SPF)
Битовая глубина : 16 бит
Метод сжатия : С потерями
Размер потока : 436 Мбайт (5%)
Заголовок : Original
Язык : English
ServiceKind/String : Complete Main
Default : Нет
Forced : Нет

Текст #1
Идентификатор : 5
Формат : UTF-8
Идентификатор кодека : S_TEXT/UTF8
Идентификатор кодека/Информация : UTF-8 Plain Text
Продолжительность : 2 ч. 14 м.
Битрейт : 1 бит/сек
ElementCount : 47
Размер потока : 1,62 Кбайт (0%)
Заголовок : Форсированные (ver. Ash61)
Язык : Russian
Default : Да
Forced : Нет

Текст #2
Идентификатор : 6
Формат : UTF-8
Идентификатор кодека : S_TEXT/UTF8
Идентификатор кодека/Информация : UTF-8 Plain Text
Продолжительность : 2 ч. 15 м.
Битрейт : 82 бит/сек
ElementCount : 1806
Размер потока : 81,3 Кбайт (0%)
Заголовок : Полные [BD UHD Eur] (адаптированы под BD 3D - Ash61)
Язык : Russian
Default : Нет
Forced : Нет

Текст #3
Идентификатор : 7
Формат : UTF-8
Идентификатор кодека : S_TEXT/UTF8
Идентификатор кодека/Информация : UTF-8 Plain Text
Продолжительность : 2 ч. 2 м.
Битрейт : 1 бит/сек
ElementCount : 47
Размер потока : 1,58 Кбайт (0%)
Заголовок : Форсированные (ver. Ash61)
Язык : Ukrainian
Default : Нет
Forced : Нет

Текст #4
Идентификатор : 8
Формат : UTF-8
Идентификатор кодека : S_TEXT/UTF8
Идентификатор кодека/Информация : UTF-8 Plain Text
Продолжительность : 2 ч. 15 м.
Битрейт : 72 бит/сек
ElementCount : 1916
Размер потока : 71,7 Кбайт (0%)
Заголовок : Full (adapted for BD 3D)
Язык : English
Default : Нет
Forced : Нет

Текст #5
Идентификатор : 9
Формат : UTF-8
Идентификатор кодека : S_TEXT/UTF8
Идентификатор кодека/Информация : UTF-8 Plain Text
Продолжительность : 2 ч. 15 м.
Битрейт : 77 бит/сек
ElementCount : 2195
Размер потока : 76,7 Кбайт (0%)
Заголовок : SDH (adapted for BD 3D)
Язык : English
Default : Нет
Forced : Нет

Меню
00:00:00.000 : :1
00:04:58.130 : :2
00:13:43.489 : :3
00:19:21.451 : :4
00:26:45.979 : :5
00:35:41.514 : :6
00:40:13.244 : :7
00:46:22.028 : :8
00:51:34.215 : :9
00:57:51.800 : :10
01:01:53.251 : :11
01:08:45.162 : :12
01:14:22.832 : :13
01:19:48.073 : :14
01:24:59.260 : :15
01:32:58.197 : :16
01:38:48.921 : :17
01:46:32.969 : :18
01:53:29.594 : :19
02:01:14.809 : :20

Просьба к переливающим на другие сайты, в оформлении указывайте пожалуйста авторство группы R.G. HD-Filmspb.wtf



Скачать Форсаж: Хоббс и Шоу в 3D через торрент https://d.radikal.ru/d03/1911/04/3627e5c0ef11.png Скачать фильм Форсаж: Хоббс и Шоу в 3D через торрент бесплантно в хорошем качестве В ролях: Дуэйн Джонсон, Джейсон Стэйтем, Ванесса Кирби, Идрис Эльба, Эдди Марсан, Хелен Миррен, Райан Рейнольдс, Эйса Гонсалес, Клифф ... 5 10 1
Торрент: Зарегистрирован [2020-04-28 15:35] · скачан: 3 раз
Статус: √ проверено
Размер: 8.09 GB
Как cкачать? Как скачать Форсаж: Хоббс и Шоу в 3D через торрент | UTorrent

28-11-2019 20:33  

Отключить всю рекламу на сайте

    Дорогой пользователь! Огромная просьба, поблагодарите релизера, оцените раздачу и оставьте свои комментарий, если Вы скачали Форсаж: Хоббс и Шоу в 3D через торрент бесплатно! Внесите свою лепту в развитие PiratBit!
    Комментировать посты могут только пользователи прошедшие не сложную регистрацию
    Показать сообщения:    

    Форсаж: Хоббс и Шоу в 3D через торрент
    Скачать бесплатно Форсаж: Хоббс и Шоу в 3D
    Форсаж: Хоббс и Шоу в 3D скачать торрент
    Форсаж: Хоббс и Шоу в 3D смотреть онлайн
    Cкачать фильм Форсаж: Хоббс и Шоу в 3D бесплатно
    Форсаж: Хоббс и Шоу в 3D скачать торрент в хорошем качестве
    Форсаж: Хоббс и Шоу в 3D смотреть онлайн бесплатно в хорошем качестве


    Вы не можете начинать темы
    Вы не можете отвечать на сообщения
    Вы не можете редактировать свои сообщения
    Вы не можете удалять свои сообщения
    Вы не можете голосовать в опросах
    Вы не можете прикреплять файлы к сообщениям
    Вы можете скачивать файлы