2 сезон

iTunes

1 сезон

1

iTunes

iTunes

iTunes

1 сезон

RePack

30

ИГРА 18+

pack

ВАЖНО

!!Акция!!

Alien_RageХит недели

RePack

MK11
pack

Забери бонус

RePack

jed

!!Акция!!

Alien_Rage

RePack

fifa19

RePack

Assassins Creed: Odyssey

RePack

NEED FOR SPEED™ PAYBACK

4 сезон

9 сезон

Бесстыжие 9 сезон

Все сериалы

все сериалы на PB.wtf

RePack

FAR CRY 5
  

Сержант Стабби: Американский герой / Sgt. Stubby: An American Hero (Ричард Ланни) [2018, Мультфильм, приключения, семейный, военный, история, BDRip-AVC] MVO [HDrezka Studio] - ExKinoRay pb.wtf

Сержант Стабби: Американский герой через торрент pb.wtf

Размер: 1.82 GB | Добавлен: 6 мес. назад | Торрент скачан:33 раза
Скачать  

29-04-2020 14:13 Сержант Стабби: Американский герой Скачать торрент  

Сержант Стабби: Американский герой / Sgt. Stubby: An American Hero
Год выпуска: 2018
Страна: Ирландия, Франция / Fun Academy Media Group
Жанр: Мультфильм, приключения, семейный, военный, история
Продолжительность: 01:24:25
Перевод: Профессиональный многоголосый [HDrezka Studio]
Субтитры: Английские

Режиссер: Ричард Ланни

rating

В ролях: Логан Лерман, Хелена Бонем Картер, Жерар Депардьё, Джордан Бек, Джим Фарр, Джейсон Эззель, Гийом Сенту, Кристоф Лемуан, Николас Рулон, Брайан Кук

Описание: Правдивая история о собаке-сержанте по кличке Стабби, получившей звание и награды за подвиги на Первой мировой войне. Бездомный голодающий щенок попал в добрые руки молодого солдата и стал членом его полка. Вместе со своей армейской семьёй пёс Стабби отправился на французский фронт, где участвовал в боях, спасал раненых и ловил шпионов.

Качество: BDRip-AVC
Формат: MKV
Видео кодек: H.264
Аудио кодек: AC3
Видео: MPEG-4 AVC, 2186 Кбит/с, 1024x552
Аудио#1: Русский (AC3, 6 ch, 448 Кбит/с) MVO (HDRezka Studio)
Аудио#2: Английский (AC3, 6 ch, 448 Кбит/с) Original

Релиз от:
Общее
Уникальный идентификатор : 248795658510135649758683639462463066922 (0xBB2C4D0632A3E64692D42757AF44D32A)
Полное имя : D:\Раздача\Serzhant.Stabbi.2018.BDRip-AVC.ExKinoRay.mkv
Формат : Matroska
Версия формата : Version 4 / Version 2
Размер файла : 1,82 Гбайт
Продолжительность : 1 ч. 24 м.
Общий поток : 3084 Кбит/сек
Название фильма : Sgt. Stubby: An American Hero.2018.BDRip-AVC.grab777 & ExKinoRay
Дата кодирования : UTC 2020-04-29 12:03:32
Программа кодирования : mkvmerge v7.3.0 ('Nouages') 64bit built on Oct 22 2014 18:53:34
Библиотека кодирования : libebml v1.3.0 + libmatroska v1.4.1

Видео
Идентификатор : 1
Формат : AVC
Формат/Информация : Advanced Video Codec
Профиль формата : High@L4.1
Настройки формата : CABAC / 12 Ref Frames
Параметр CABAC формата : Да
Параметр RefFrames формата : 12 кадров
Идентификатор кодека : V_MPEG4/ISO/AVC
Продолжительность : 1 ч. 24 м.
Битрейт : 2186 Кбит/сек
Ширина : 1024 пикселя
Высота : 552 пикселя
Соотношение сторон : 1,85:1
Режим частоты кадров : Постоянный
Частота кадров : 23,976 (24000/1001) кадра/сек
Цветовое пространство : YUV
Субдискретизация насыщенности : 4:2:0
Битовая глубина : 8 бит
Тип развёртки : Прогрессивная
Бит/(Пиксели*Кадры) : 0.161
Размер потока : 1,29 Гбайт (71%)
Заголовок : Rip by grab777
Библиотека кодирования : x264 core 148 r2665M a01e339
Настройки программы : cabac=1 / ref=12 / deblock=1:-2:-2 / analyse=0x3:0x133 / me=umh / subme=10 / psy=1 / psy_rd=1.00:0.15 / mixed_ref=1 / me_range=32 / chroma_me=1 / trellis=2 / 8x8dct=1 / cqm=0 / deadzone=21,11 / fast_pskip=0 / chroma_qp_offset=-3 / threads=5 / lookahead_threads=1 / sliced_threads=0 / nr=0 / decimate=1 / interlaced=0 / bluray_compat=0 / constrained_intra=0 / bframes=10 / b_pyramid=2 / b_adapt=2 / b_bias=0 / direct=3 / weightb=1 / open_gop=0 / weightp=2 / keyint=230 / keyint_min=23 / scenecut=40 / intra_refresh=0 / rc_lookahead=40 / rc=crf / mbtree=1 / crf=15.5 / qcomp=0.90 / qpmin=1 / qpmax=69 / qpstep=4 / vbv_maxrate=30000 / vbv_bufsize=40000 / crf_max=0.0 / nal_hrd=none / filler=0 / ip_ratio=1.40 / aq=1:0.00
Default : Да
Forced : Нет
Цветовой диапазон : Limited
Основные цвета : BT.709
Характеристики трансфера : BT.709
Коэффициенты матрицы : BT.709

Аудио #1
Идентификатор : 2
Формат : AC-3
Формат/Информация : Audio Coding 3
Параметр Endianness формата : Big
Идентификатор кодека : A_AC3
Продолжительность : 1 ч. 24 м.
Вид битрейта : Постоянный
Битрейт : 448 Кбит/сек
Каналы : 6 каналов
Расположение каналов : Front: L C R, Side: L R, LFE
Частота : 48,0 КГц
Частота кадров : 31,250 кадров/сек (1536 SPF)
Битовая глубина : 16 бит
Метод сжатия : С потерями
Размер потока : 271 Мбайт (15%)
Заголовок : MVO (HDRezka Studio)
Язык : Russian
ServiceKind/String : Complete Main
Default : Да
Forced : Да

Аудио #2
Идентификатор : 3
Формат : AC-3
Формат/Информация : Audio Coding 3
Параметр Endianness формата : Big
Идентификатор кодека : A_AC3
Продолжительность : 1 ч. 24 м.
Вид битрейта : Постоянный
Битрейт : 448 Кбит/сек
Каналы : 6 каналов
Расположение каналов : Front: L C R, Side: L R, LFE
Частота : 48,0 КГц
Частота кадров : 31,250 кадров/сек (1536 SPF)
Битовая глубина : 16 бит
Метод сжатия : С потерями
Размер потока : 271 Мбайт (15%)
Заголовок : Original
Язык : English
ServiceKind/String : Complete Main
Default : Нет
Forced : Нет

Текст
Идентификатор : 4
Формат : UTF-8
Идентификатор кодека : S_TEXT/UTF8
Идентификатор кодека/Информация : UTF-8 Plain Text
Продолжительность : 1 ч. 17 м.
Битрейт : 48 бит/сек
ElementCount : 862
Размер потока : 27,3 Кбайт (0%)
Язык : English
Default : Нет
Forced : Нет

Меню
00:00:00.000 : :Life On The Streets
00:03:45.308 : :Stubby Meets Conroy
00:07:30.951 : :Basic Training
00:10:39.514 : :The Yankee Division
00:12:15.109 : :Gas Mask Training
00:14:34.207 : :Schroeder's Story
00:15:55.371 : :Conroy Leaves Stubby
00:18:49.170 : :Stubby The Stowaway
00:20:47.580 : :Searching For Conroy
00:22:40.192 : :Stubby's Dog Tags
00:24:16.163 : :To The Trenches
00:26:37.096 : :Welcome Yankee Division
00:28:19.448 : :Gaston Baptiste
00:33:44.356 : :Gas Attack
00:39:48.803 : :A Taste Of Home
00:44:43.347 : :No Man's Land
00:46:31.664 : :Three Musketeers
00:48:41.293 : :Seicheprey
00:54:26.430 : :Gaston Says Goodbye
00:57:13.597 : :Race Against Time
01:01:38.278 : :Stubby's Return
01:03:10.495 : :A Trip To Paris
01:05:59.456 : :Stubby Catches A Spy
01:07:13.446 : :Sgt. Stubby
01:08:19.595 : :The New Beasts Of War
01:09:34.837 : :The War Is Over!
01:10:19.966 : :Comrades In Arms
01:11:23.821 : :11 November 1918
01:15:26.480 : :Coming Home
01:17:51.000 : :Credits

pb.wtf



Скачать Сержант Стабби: Американский герой через торрент http://pic1.kartinco.top/images/12/5l48i.jpg Скачать фильм Сержант Стабби: Американский герой через торрент бесплантно в хорошем качестве Описание: Правдивая история о собаке-сержанте по кличке Стабби, получившей звание и награды за подвиги на Первой мировой войне. Бездомный ... 5 10 1
Info! Золотая раздача, скачанное не засчитывается.
Торрент: Зарегистрирован [2020-04-29 14:13] · скачан: 33 раз
Статус: √ проверено
Размер: 1.82 GB
Как cкачать? Как скачать Сержант Стабби: Американский герой через торрент | qTorrent

28-11-2019 20:33  

Отключить всю рекламу на сайте

    Дорогой пользователь! Огромная просьба, поблагодарите релизера, оцените раздачу и оставьте свои комментарий, если Вы скачали Сержант Стабби: Американский герой через торрент бесплатно! Внесите свою лепту в развитие PiratBit!
    Комментировать посты могут только пользователи прошедшие не сложную регистрацию
    Показать сообщения:    

    Сержант Стабби: Американский герой через торрент
    Скачать бесплатно Сержант Стабби: Американский герой
    Сержант Стабби: Американский герой скачать торрент
    Сержант Стабби: Американский герой смотреть онлайн
    Cкачать фильм Сержант Стабби: Американский герой бесплатно
    Сержант Стабби: Американский герой скачать торрент в хорошем качестве
    Сержант Стабби: Американский герой смотреть онлайн бесплатно в хорошем качестве


    Вы не можете начинать темы
    Вы не можете отвечать на сообщения
    Вы не можете редактировать свои сообщения
    Вы не можете удалять свои сообщения
    Вы не можете голосовать в опросах
    Вы не можете прикреплять файлы к сообщениям
    Вы можете скачивать файлы