2 сезон

iTunes

MVO

1

2 сезон

iTunes

iTunes

1 сезон

RePack

30

Ultimate

ВАЖНО

ИГРА 18+

pack

RePack

MK11
pack

Легкие деньги

RePack

jed

RePack

fifa19

RePack

RDR2

RePack

NEED FOR SPEED™ PAYBACK

4 сезон

9 сезон

Бесстыжие 9 сезон

Все сериалы

все сериалы на PB.wtf

RePack

FAR CRY 5

Anonymous, добрый вечер, мы не успеваем собрать деньги на оплату серверов за декабрь и январь, помогите нам пожалуйста в это трудное время. В качестве благодарности мы отключим Вам всю рекламу на сайте (укажите свой ник в строку Ваше имя)!

×
  
Magnet ссылка

Драйв / Drive (Стив Ванг) [1997 г., Фантастика, Боевик, Комедия, Приключения, WEB-DLRip 720p / 60 FPS, Профессиональный (многоголосый)] ( Open Matte ) от R.G. HD-Films pb.wtf

Драйв через торрент pb.wtf

Раздают: 2 [ 0 KB/s ]
Размер: 4.1 GB | Добавлен: 8 мес. назад | Торрент скачан:89 раз
Скачать  

29-04-2020 14:19 Драйв Скачать торрент  

Драйв / Drive
Год выпуска: : 1997
Страна: : США
Жанр: : Фантастика, Боевик, Комедия, Приключения
Продолжительность: 01:39:46
Перевод: Профессиональный многоголосый (ОРТ)


Режиссер: Стив Ванг

Бюджет:$3 500 000
Премьера в мире: 4 августа 1997

rating

В ролях: Марк Дакаскос, Кадим Хардисон, Джон Пайпер-Фергюсон, Бриттани Мерфи, Трейси Уолтер, Джеймс Шигета, Масая Като, Дом Магуили, Рон Юань, Клайв Розенгрен


Сюжет фильма: Сан-Франциско. Недалекое будущее. Грузовое судно возвращается из Гонконга с загадочным пассажиром по имени Тоби Уонг. Он сбежал от подпольной корпорации Леунга в поисках свободы на Западе.
Однако Тоби попадает в лапы банды хладнокровного Вика Мэдисона. Вырвавшись из банды Мэдисона, он берет в заложники пьяницу Малика Броунди и едет в Лос-Анджелес. В дороге они становятся приятелями, и Тоби даже обучает Малика боевым искусствам. Однажды Малик узнает, что у Тоби имплантирован биомодуль, дающий ему силу и скорость.
Это сделал мистер Лау, глава корпорации Леунг, который хочет вернуть беглеца во что бы то ни стало. Сбежавшую парочку преследует и банда Вика Мэдисона и новая жертва мистера Лау с более совершенным биомодулем…


Качество видео: WEB-DLRip 720p / 60 FPS
Формат: MKV
Видео кодек: H.264
Аудио кодек: AC3
Видео : x264, 1280 x 720 ( 16:9 ), 5707 kbps, 60,000 fps, ( 0.103 bpp)
Аудио : Русский, AC-3, 48.0 KHz, 2 ch, 192 Kbps ( MVO - (ОРТ) )
Релиз от:

скриншот   скриншот   скриншот   скриншот   скриншот   скриншот  Автор рипа: slaventi-69
Общее
Уникальный идентификатор : 120735823424736251926315596625265601923 (0x5AD4DFAF59DF85401854D5A707DCAD83)
Полное имя : F:\Drive.(1997).WEB-DLRip.720p.(60 Fps).(Open Matte).mkv
Формат : Matroska
Версия формата : Version 4
Размер файла : 4,10 Гбайт
Продолжительность : 1 ч. 39 м.
Общий поток : 5903 Кбит/сек
Название фильма : Драйв / Drive (1997) WEB-DLRip 720p (60 Fps) | Театральная версия | Open Matte
Дата кодирования : UTC 2020-04-29 12:13:33
Программа кодирования : mkvmerge v42.0.0 ('Overtime') 64-bit
Библиотека кодирования : libebml v1.3.10 + libmatroska v1.5.2

Видео
Идентификатор : 1
Формат : AVC
Формат/Информация : Advanced Video Codec
Профиль формата : High@L4.1
Настройки формата : CABAC / 8 Ref Frames
Параметр CABAC формата : Да
Параметр RefFrames формата : 8 кадров
Идентификатор кодека : V_MPEG4/ISO/AVC
Продолжительность : 1 ч. 39 м.
Битрейт : 5707 Кбит/сек
Ширина : 1280 пикселей
Высота : 720 пикселей
Соотношение сторон : 16:9
Режим частоты кадров : Постоянный
Частота кадров : 60,000 кадров/сек
Цветовое пространство : YUV
Субдискретизация насыщенности : 4:2:0
Битовая глубина : 8 бит
Тип развёртки : Прогрессивная
Бит/(Пиксели*Кадры) : 0.103
Размер потока : 3,96 Гбайт (97%)
Заголовок : slaventi-69 ( R.G. HD-Films | 60 fps )
Библиотека кодирования : x264 core 130 r2273 b3065e6
Настройки программы : cabac=1 / ref=8 / deblock=1:-1:-1 / analyse=0x3:0x113 / me=umh / subme=8 / psy=1 / psy_rd=1.00:0.00 / mixed_ref=1 / me_range=26 / chroma_me=1 / trellis=2 / 8x8dct=1 / cqm=0 / deadzone=21,11 / fast_pskip=1 / chroma_qp_offset=-2 / threads=2 / lookahead_threads=1 / sliced_threads=0 / nr=0 / decimate=1 / interlaced=0 / bluray_compat=0 / constrained_intra=0 / bframes=5 / b_pyramid=2 / b_adapt=2 / b_bias=0 / direct=2 / weightb=1 / open_gop=0 / weightp=2 / keyint=250 / keyint_min=25 / scenecut=40 / intra_refresh=0 / rc=crf / mbtree=0 / crf=17.0 / qcomp=0.60 / qpmin=0 / qpmax=69 / qpstep=4 / ip_ratio=1.40 / pb_ratio=1.30 / aq=1:1.00
Язык : English
Default : Да
Forced : Нет

Аудио
Идентификатор : 2
Формат : AC-3
Формат/Информация : Audio Coding 3
Коммерческое название : Dolby Digital
Идентификатор кодека : A_AC3
Продолжительность : 1 ч. 39 м.
Вид битрейта : Постоянный
Битрейт : 192 Кбит/сек
Каналы : 2 канала
Channel layout : L R
Частота : 48,0 КГц
Частота кадров : 31,250 кадров/сек (1536 SPF)
Битовая глубина : 16 бит
Метод сжатия : С потерями
Размер потока : 137 Мбайт (3%)
Заголовок : MVO - (ОРТ)
Язык : Russian
ServiceKind/String : Complete Main
Default : Да
Forced : Нет

Просьба к переливающим на другие сайты, в оформлении указывайте пожалуйста авторство группы R.G. HD-Films pb.wtf



Скачать Драйв через торрент https://b.radikal.ru/b00/1810/d1/7d870c822458.jpg Скачать фильм Драйв через торрент бесплантно в хорошем качестве В ролях: Марк Дакаскос, Кадим Хардисон, Джон Пайпер-Фергюсон, Бриттани Мерфи, Трейси Уолтер, Джеймс Шигета, Масая Като, Дом Магуили, Рон ... 10 10 14
Info! Золотая раздача, скачанное не засчитывается.
Торрент: Зарегистрирован [2020-04-29 14:19] · скачан: 89 раз
Статус: √ проверено
Размер: 4.1 GB
Как cкачать? Как скачать Драйв через торрент | UTorrent

28-11-2019 20:33  

Отключить всю рекламу на сайте

29-04-2020 15:36 Драйв Скачать торрент  

pb.wtf



29-04-2020 15:39 Драйв Скачать торрент  

Любимый фильм детства!pb.wtf



30-04-2020 14:01 Драйв Скачать торрент  

На видеокассете у меня был, нереально крутым казался в то время. Пересматривать опасно, можно разочароваться.pb.wtf



01-05-2020 08:25 Драйв Скачать торрент  

Спасибо большое за фильм!!! У меня был, но битрейт видео гораздо поменьше. Заменил у себя, добавил в коллекцию. Так уже не снимают. Боевик и комедия два в одном. Да и Бриттани Мёрфи уже давно нет в живых. Благодарю.pb.wtf



    Дорогой пользователь! Огромная просьба, поблагодарите релизера, оцените раздачу и оставьте свои комментарий, если Вы скачали Драйв через торрент бесплатно! Внесите свою лепту в развитие PiratBit!
    Комментировать посты могут только пользователи прошедшие не сложную регистрацию
    Показать сообщения:    

    Драйв через торрент
    Скачать бесплатно Драйв
    Драйв скачать торрент
    Драйв смотреть онлайн
    Cкачать фильм Драйв бесплатно
    Драйв скачать торрент в хорошем качестве
    Драйв смотреть онлайн бесплатно в хорошем качестве


    Вы не можете начинать темы
    Вы не можете отвечать на сообщения
    Вы не можете редактировать свои сообщения
    Вы не можете удалять свои сообщения
    Вы не можете голосовать в опросах
    Вы не можете прикреплять файлы к сообщениям
    Вы можете скачивать файлы