Ссылка на приватное зеркало нашего сайта всего за 1$. Внимание количество ограничено!!!

2 сезон

iTunes

1 сезон

1

2 сезон

2 сезон

iTunes

1 сезон

RePack

30

Ultimate

ВАЖНО

ИГРА 18+

pack

RePack

MK11
pack

Забери бонус

RePack

jed

!!Акция!!

Alien_Rage

RePack

fifa19

RePack

Assassins Creed: Odyssey

RePack

NEED FOR SPEED™ PAYBACK

4 сезон

9 сезон

Бесстыжие 9 сезон

Все сериалы

все сериалы на PB.wtf

RePack

FAR CRY 5
  

Неизбранные дороги / The Roads Not Taken (Салли Поттер) [2020, драма, WEB-DLRip, Дубляж "iTunes"] pb.wtf

Неизбранные дороги через торрент pb.wtf

Размер: 706 MB | Добавлен: 6 мес. назад | Торрент скачан:16 раз
Скачать  

29-04-2020 18:21 Неизбранные дороги Скачать торрент  

Неизбранные дороги / The Roads Not Taken
Год выпуска: 2020
Страна: Великобритания, Швеция, США / Adventure Pictures, BBC Films, British Film Institute (BFI)
Жанр: драма
Продолжительность: 01:25:11
Перевод: Дубляж (iTunes)

Режиссер: Салли Поттер
«Путешествие одного человека в его разум»
rating

В ролях: Хавьер Бардем, Эль Фаннинг, Бранка Катич, Сальма Хайек, Дмитрий Андреас, Катя Муллова-Брайнд, Милена Чарнтке, Дебора Уэстон, Аарон Джошуа, Сабина Камерон

Описание: День, обещавший Лео лишь рутину, становится точкой пересечения множества судеб. Богемная жизнь, непростая карьера музыканта на Манхэттене, безумная любовь, рождение дочери и бегство на греческий остров, полный соблазнов. Сегодня всё это как будто происходит вновь...

Качество: WEB-DLRip
Формат: AVI
Видео кодек: DivX
Аудио кодек: MP3
Видео: 640x272 (2.35:1), 24.000 fps, DivX Codec 4.x ~1021 kbps avg, 0.24 bit/pixel
Аудио: 48 kHz, MPEG Layer 3, 2 ch, ~128.00 kbps avg
скриншот   скриншот   скриншот   скриншот   скриншот   скриншот   скриншот   скриншот  

Общее
Полное имя : F:\ФИЛЬМЫ\Неизбранные дороги.2020.D.WEB-DLRip.avi
Формат : AVI
Формат/Информация : Audio Video Interleave
Размер файла : 706 Мбайт
Продолжительность : 1 ч. 25 м.
Общий поток : 1 159 Кбит/сек
Программа кодирования : VirtualDubMod 1.5.10.3 | www.virtualdub-fr.org || (build 2550/release)
Библиотека кодирования : VirtualDubMod build 2550/release

Видео
Идентификатор : 0
Формат : MPEG-4 Visual
Профиль формата : Advanced Simple@L5
Настройки формата : BVOP3 / GMC3 / QPel
Параметр BVOP формата : 3
Параметр QPel формата : Да
Параметр GMC формата : 3 точки перехода
Параметр матрицы формата : Default (MPEG)
Идентификатор кодека : DIVX
Идентификатор кодека/Информация : Project Mayo
Идентификатор кодека/Подсказка : DivX 4
Продолжительность : 1 ч. 25 м.
Битрейт : 1 021 Кбит/сек
Ширина : 640 пикселей
Высота : 272 пикселя
Соотношение сторон : 2,35:1
Частота кадров : 24,000 кадра/сек
Цветовое пространство : YUV
Субдискретизация насыщенности : 4:2:0
Битовая глубина : 8 бит
Тип развёртки : Прогрессивная
Метод сжатия : С потерями
Бит/(Пиксели*Кадры) : 0.244
Размер потока : 622 Мбайт (88%)
Библиотека кодирования : XviD 1.2.1 (UTC 2008-12-04)

Аудио
Идентификатор : 1
Формат : MPEG Audio
Версия формата : Version 1
Профиль формата : Layer 3
Настройки формата : Joint stereo / MS Stereo
Идентификатор кодека : 55
Идентификатор кодека/Подсказка : MP3
Продолжительность : 1 ч. 25 м.
Вид битрейта : Постоянный
Битрейт : 128 Кбит/сек
Каналы : 2 канала
Частота : 48,0 КГц
Частота кадров : 41,667 кадра/сек (1152 SPF)
Метод сжатия : С потерями
Размер потока : 78,0 Мбайт (11%)
Выравнивание : Соединение по промежуткам
Продолжительность промежутка : 42 мс. (1,00 видеокадр)
Время предзагрузки промежутка : 504 мс.
Библиотека кодирования : LAME3.99r
Настройки программы : -m j -V 4 -q 2 -lowpass 17 -b 128

pb.wtf



Скачать Неизбранные дороги через торрент http://pic1.kartinco.top/images/12/dq6lm.jpg Скачать фильм Неизбранные дороги через торрент бесплантно в хорошем качестве Описание: День, обещавший Лео лишь рутину, становится точкой пересечения множества судеб. Богемная жизнь, непростая карьера музыканта на ... 10 10 2
Торрент: Зарегистрирован [2020-04-29 18:21] · скачан: 16 раз
Статус: √ проверено
Размер: 706 MB
Как cкачать? Как скачать Неизбранные дороги через торрент | qTorrent

% Раздел Тема Автор DL S | L
Фильмы 2019-2020 [DVDrip, WEB-DLRip, HDrip] (DUB, MVO) [ 1.46 GB ] Неизбранные дороги / The Roads Not Taken [2020 WEB-DLRip] bober100 Скачать
1 | 0
Фильмы (WEB-DL 720p, 1080p) [ 3.18 GB ] Неизбранные дороги / The Roads Not Taken [2020 WEB-DL 1080p] bober100 Скачать
2 | 0

28-11-2019 20:33  

Отключить всю рекламу на сайте

    Дорогой пользователь! Огромная просьба, поблагодарите релизера, оцените раздачу и оставьте свои комментарий, если Вы скачали Неизбранные дороги через торрент бесплатно! Внесите свою лепту в развитие PiratBit!
    Комментировать посты могут только пользователи прошедшие не сложную регистрацию
    Показать сообщения:    

    Неизбранные дороги через торрент
    Скачать бесплатно Неизбранные дороги
    Неизбранные дороги скачать торрент
    Неизбранные дороги смотреть онлайн
    Cкачать фильм Неизбранные дороги бесплатно
    Неизбранные дороги скачать торрент в хорошем качестве
    Неизбранные дороги смотреть онлайн бесплатно в хорошем качестве


    Вы не можете начинать темы
    Вы не можете отвечать на сообщения
    Вы не можете редактировать свои сообщения
    Вы не можете удалять свои сообщения
    Вы не можете голосовать в опросах
    Вы не можете прикреплять файлы к сообщениям
    Вы можете скачивать файлы