Ссылка на приватное зеркало нашего сайта всего за 1$. Внимание количество ограничено!!!

2 сезон

iTunes

1 сезон

1

2 сезон

2 сезон

iTunes

1 сезон

RePack

30

Ultimate

ВАЖНО

ИГРА 18+

pack

RePack

MK11
pack

Забери бонус

RePack

jed

!!Акция!!

Alien_Rage

RePack

fifa19

RePack

Assassins Creed: Odyssey

RePack

NEED FOR SPEED™ PAYBACK

4 сезон

9 сезон

Бесстыжие 9 сезон

Все сериалы

все сериалы на PB.wtf

RePack

FAR CRY 5
  

Правда / La vérité / The Truth (Хирокадзу Корээда) [2019, Драма, WEB-DL 1080p] MVO [iTunes] pb.wtf

Правда через торрент pb.wtf

Размер: 4.18 GB | Добавлен: 7 мес. назад | Торрент скачан:15 раз
Скачать  

29-04-2020 21:04 Правда Скачать торрент  

Правда | La vérité | The Truth
Год выпуска: 2019
Страна: Франция, Япония
Студия: 3B Productions, Bun-Buku, MI Movies
Жанр: Драма
Продолжительность: 01:46:47
Перевод: Профессиональный (многоголосый) | iTunes
Субтитры: отсутствуют

Режиссер: Хирокадзу Корээда

rating

В ролях: Катрин Денёв, Жюльетт Бинош, Итэн Хоук, Клементин Гренье, Манон Клавель, Ален Либоль, Кристиан Крахай, Рогер Ван Хол, Людивин Санье, Лорен Капеллуто

Описание: «Правда» - под таким названием французская кинозвезда Фабьенн выпускает свои мемуары. С названием готова поспорить ее дочь-сценаристка, которая, приехав из Америки с мужем - актером сериалов и дочкой, не нашла в книге ни слова правды - по крайней мере, о себе. Однако диве Фабьенн не до пустяков - она готовится к новой роли, которая причудливым образом отзеркалит ее настоящую семью, где за остроумными колкостями таится любовь, а за ложью - нежность.

Качество: WEB-DL 1080p
Формат: MKV

Видео: MPEG-4 AVC, 1920x1048 (1.85:1), ~5218 Kb/s, 24.000 fps, 0.108 bit/pixel
Аудио: 48 kHz, AC3 Dolby Digital, 3/2 (L,C,R,l,r) + LFE ch, ~384 kbps
скриншот  скриншот  скриншот  скриншот  

Format: Matroska
Format version: Version 4
File size: 4.18 GiB
Duration: 1 h 46 min
Overall bit rate: 5 604 kb/s
Movie name: Pravda - ELEKTRI4KA - Kapo
Encoded date: UTC 2020-04-29 20:26:10
Writing application: mkvmerge v41.0.0 ('Smarra') 64-bit
Writing library: libebml v1.3.9 + libmatroska v1.5.2
Cover: Yes
Attachments: cover.jpg

Video
ID: 1
Format: AVC
Format/Info: Advanced Video Codec
Format profile: High@L4
Format settings: CABAC / 4 Ref Frames
Format settings, CABAC: Yes
Format settings, Reference frames: 4 frames
Codec ID: V_MPEG4/ISO/AVC
Duration: 1 h 46 min
Bit rate: 5 218 kb/s
Width: 1 920 pixels
Height: 1 048 pixels
Display aspect ratio: 1.85:1
Frame rate mode: Constant
Frame rate: 24.000 FPS
Color space: YUV
Chroma subsampling: 4:2:0
Bit depth: 8 bits
Scan type: Progressive
Bits/(Pixel*Frame): 0.108
Stream size: 3.89 GiB (93%)
Title: ELEKTRI4KA - Kapo
Language: English
Default: Yes
Forced: No
Color range: Limited
Color primaries: BT.709
Transfer characteristics: BT.709
Matrix coefficients: BT.709

Audio
ID: 2
Format: AC-3
Format/Info: Audio Coding 3
Commercial name: Dolby Digital
Codec ID: A_AC3
Duration: 1 h 46 min
Bit rate mode: Constant
Bit rate: 384 kb/s
Channel(s): 6 channels
Channel layout: L R C LFE Ls Rs
Sampling rate: 48.0 kHz
Frame rate: 31.250 FPS (1536 SPF)
Compression mode: Lossy
Delay relative to video: -42 ms
Stream size: 293 MiB (7%)
Title: MVO (iTunes)
Language: Russian
Service kind: Complete Main
Default: Yes
Forced: No

Menu
00:00:00.000: en:Глава 1
00:06:56.375: en:Глава 2
00:13:13.625: en:Глава 3
00:19:33.458: en:Глава 4
00:25:06.083: en:Глава 5
00:32:27.416: en:Глава 6
00:38:49.666: en:Глава 7
00:45:58.124: en:Глава 8
00:53:38.499: en:Глава 9
01:00:44.665: en:Глава 10
01:07:17.081: en:Глава 11
01:12:09.371: en:Глава 12
01:20:26.078: en:Глава 13
01:29:00.535: en:Глава 14
01:39:18.410: en:Глава 15

pb.wtf



Скачать Правда через торрент https://i111.fastpic.ru/big/2020/0429/d0/3cae0e8e77e6eaa6a0daaba91acea9d0.png Скачать фильм Правда через торрент бесплантно в хорошем качестве Описание: «Правда» - под таким названием французская кинозвезда Фабьенн выпускает свои мемуары. С названием готова поспорить ее ... 10 10 3
Торрент: Зарегистрирован [2020-04-29 21:04] · скачан: 15 раз
Статус: √ проверено
Размер: 4.18 GB
Как cкачать? Как скачать Правда через торрент | qTorrent

% Раздел Тема Автор DL S | L
Фильмы 2019-2020 [DVDrip, WEB-DLRip, HDrip] (DUB, MVO) [ 743 MB ] Правда / La vérité / The Truth [2019 HDRip] MVO bober100 Скачать
1 | 0
Фильмы (Blu-ray, BD-Remux, HDDVD) [ 27.58 GB ] Правда / La vérité / The Truth [2019 BD Remux 1080p] MVO bober100 Скачать
1 | 0
Фильмы [HD 720p, 1080p] (Хороший звук DUB, MVO) [ 13.36 GB ] Правда / La vérité / The Truth [2019 BDRip 1080p] MVO bober100 Скачать
1 | 0
Фильмы [HD 720p, 1080p] (Хороший звук DUB, MVO) [ 8.13 GB ] Правда / La vérité / The Truth [2019 BDRip 720p] MVO bober100 Скачать
1 | 0
Фильмы 2019-2020 [DVDrip, WEB-DLRip, HDrip] (DUB, MVO) [ 1.46 GB ] Правда / La vérité / The Truth [2019 BDRip] MVO bober100 Скачать
1 | 0

28-11-2019 20:33  

Отключить всю рекламу на сайте

    Дорогой пользователь! Огромная просьба, поблагодарите релизера, оцените раздачу и оставьте свои комментарий, если Вы скачали Правда через торрент бесплатно! Внесите свою лепту в развитие PiratBit!
    Комментировать посты могут только пользователи прошедшие не сложную регистрацию
    Показать сообщения:    

    Правда через торрент
    Скачать бесплатно Правда
    Правда скачать торрент
    Правда смотреть онлайн
    Cкачать фильм Правда бесплатно
    Правда скачать торрент в хорошем качестве
    Правда смотреть онлайн бесплатно в хорошем качестве


    Вы не можете начинать темы
    Вы не можете отвечать на сообщения
    Вы не можете редактировать свои сообщения
    Вы не можете удалять свои сообщения
    Вы не можете голосовать в опросах
    Вы не можете прикреплять файлы к сообщениям
    Вы можете скачивать файлы