2 сезон

iTunes

MVO

1

2 сезон

iTunes

iTunes

1 сезон

RePack

30

Новинка

ВАЖНО

ИГРА 18+

pack

RePack

MK11
pack

Легкие деньги

RePack

jed

RePack

fifa19

RePack

RDR2

RePack

NEED FOR SPEED™ PAYBACK

4 сезон

9 сезон

Бесстыжие 9 сезон

Все сериалы

все сериалы на PB.wtf

RePack

FAR CRY 5

Anonymous, добрый вечер, мы не успеваем собрать деньги на оплату серверов за декабрь и январь, помогите нам пожалуйста в это трудное время. В качестве благодарности мы отключим Вам всю рекламу на сайте (укажите свой ник в строку Ваше имя)!

×
  
Magnet ссылка

Последний бойскаут / The Last Boy Scout (Тони Скотт) [1991 г., Боевик, триллер, комедия, криминал, детектив, BDRip 720p / 60 FPS, (Dub + AVO)] от R.G. HD-Films pb.wtf

Последний бойскаут через торрент pb.wtf

Размер: 4.05 GB | Добавлен: 8 мес. назад | Торрент скачан:117 раз
Скачать  

30-04-2020 14:43 Последний бойскаут Скачать торрент  

Последний бойскаут / The Last Boy Scout
Год выпуска: : 1991
Страна: : США
Жанр: : Боевик, триллер, комедия, криминал
Продолжительность: 01:45:24
Перевод: Дубляж + авторский, А.Гаврилов
Субтитры: Russian, English

Режиссер: Тони Скотт

Бюджет: $29 000 000
Премьера в мире: 12 декабря 1991

rating

В ролях: Брюс Уиллис, Дэймон Уайанс, Челси Филд, Ноубл Уиллингэм, Тейлор Негрон, Даниэль Харрис, Холли Берри, Брюс МакГилл, Баджа Джола, Ким Коутс, Челси Росс, Джо Сантос, Кларенс Фелдер, Тони Лонго, Фрэнк Коллисон, Билли Блэнкс


Сюжет фильма: Джо был американским героем — человеком, спасшим президента, а теперь он частный детектив, проснувшийся после очередной попойки в своей старенькой машине с больной головой и семейными проблемами. Весьма кстати подворачивается непыльная работенка — охрана звезды захудалого стриптиз-клуба. Однако события выходят из-под контроля — сначала убивают его друга, а потом и стриптизершу, которую Джо должен охранять. Ее парень Джимми Дикс — футболист, списанный из-за наркотиков, не меньше Джо хочет разобраться в этом деле, тем более что прямо перед смертью она обещала ему подарок ко дню рождения — возвращение в большой спорт.

Качество видео: BDRip 720p / 60 FPS
Формат: MKV
Видео кодек: H.264
Аудио кодек: AC3
Видео : x264, 1280 x 536 ( 2,40:1 ), 4734 kbps, 60,000 fps, ( 0.115 bpp)
Аудио : Русский, AC-3, 48.0 KHz, 6 ch, 384 Kbps ( AVO Андрей Гаврилов (ранний) )
Аудио : Русский, AC-3, 48.0 KHz, 6 ch, 384 Kbps ( DUB Мост-Видео )
Релиз от:

скриншот   скриншот   скриншот   скриншот   скриншот   скриншот  Автор рипа: slaventi-69
Общее
Уникальный идентификатор : 185986495295359568126927377620659168540 (0x8BEBB23099EE53CEC7ADF6EC8941651C)
Полное имя : F:\The.Last.Boy.Scout.(1991).BDRip.720p.(60 Fps).mkv
Формат : Matroska
Версия формата : Version 4
Размер файла : 4,05 Гбайт
Продолжительность : 1 ч. 45 м.
Общий поток : 5503 Кбит/сек
Название фильма : Последний бойскаут / The Last Boy Scout (1991) BDRip 720p (60 Fps)
Дата кодирования : UTC 2020-04-27 07:39:46
Программа кодирования : mkvmerge v42.0.0 ('Overtime') 64-bit
Библиотека кодирования : libebml v1.3.10 + libmatroska v1.5.2

Видео
Идентификатор : 1
Формат : AVC
Формат/Информация : Advanced Video Codec
Профиль формата : High@L4.1
Настройки формата : CABAC / 8 Ref Frames
Параметр CABAC формата : Да
Параметр RefFrames формата : 8 кадров
Идентификатор кодека : V_MPEG4/ISO/AVC
Продолжительность : 1 ч. 45 м.
Битрейт : 4734 Кбит/сек
Ширина : 1280 пикселей
Высота : 536 пикселей
Соотношение сторон : 2,40:1
Режим частоты кадров : Постоянный
Частота кадров : 60,000 кадров/сек
Цветовое пространство : YUV
Субдискретизация насыщенности : 4:2:0
Битовая глубина : 8 бит
Тип развёртки : Прогрессивная
Бит/(Пиксели*Кадры) : 0.115
Размер потока : 3,48 Гбайт (86%)
Заголовок : slaventi-69 ( R.G. HD-Films | 60 fps )
Библиотека кодирования : x264 core 130 r2273 b3065e6
Настройки программы : cabac=1 / ref=8 / deblock=1:-1:-1 / analyse=0x3:0x133 / me=umh / subme=9 / psy=1 / psy_rd=1.00:0.00 / mixed_ref=1 / me_range=28 / chroma_me=1 / trellis=2 / 8x8dct=1 / cqm=0 / deadzone=21,11 / fast_pskip=0 / chroma_qp_offset=-2 / threads=6 / lookahead_threads=1 / sliced_threads=0 / nr=0 / decimate=1 / interlaced=0 / bluray_compat=0 / constrained_intra=0 / bframes=5 / b_pyramid=2 / b_adapt=2 / b_bias=0 / direct=3 / weightb=1 / open_gop=0 / weightp=2 / keyint=250 / keyint_min=25 / scenecut=40 / intra_refresh=0 / rc=crf / mbtree=0 / crf=17.7 / qcomp=0.60 / qpmin=0 / qpmax=69 / qpstep=4 / ip_ratio=1.40 / pb_ratio=1.30 / aq=1:1.00
Язык : English
Default : Да
Forced : Нет

Аудио #1
Идентификатор : 2
Формат : AC-3
Формат/Информация : Audio Coding 3
Коммерческое название : Dolby Digital
Идентификатор кодека : A_AC3
Продолжительность : 1 ч. 45 м.
Вид битрейта : Постоянный
Битрейт : 384 Кбит/сек
Каналы : 6 каналов
Channel layout : L R C LFE Ls Rs
Частота : 48,0 КГц
Частота кадров : 31,250 кадров/сек (1536 SPF)
Битовая глубина : 16 бит
Метод сжатия : С потерями
Размер потока : 289 Мбайт (7%)
Заголовок : AVO Андрей Гаврилов (ранний)
Язык : Russian
ServiceKind/String : Complete Main
Default : Да
Forced : Нет

Аудио #2
Идентификатор : 3
Формат : AC-3
Формат/Информация : Audio Coding 3
Коммерческое название : Dolby Digital
Идентификатор кодека : A_AC3
Продолжительность : 1 ч. 45 м.
Вид битрейта : Постоянный
Битрейт : 384 Кбит/сек
Каналы : 6 каналов
Channel layout : L R C LFE Ls Rs
Частота : 48,0 КГц
Частота кадров : 31,250 кадров/сек (1536 SPF)
Битовая глубина : 16 бит
Метод сжатия : С потерями
Размер потока : 289 Мбайт (7%)
Заголовок : DUB Мост-Видео
Язык : Russian
ServiceKind/String : Complete Main
Default : Нет
Forced : Нет

Текст #1
Идентификатор : 4
Формат : UTF-8
Идентификатор кодека : S_TEXT/UTF8
Идентификатор кодека/Информация : UTF-8 Plain Text
Продолжительность : 1 ч. 40 м.
Битрейт : 100 бит/сек
ElementCount : 1470
Размер потока : 74,6 Кбайт (0%)
Язык : Russian
Default : Да
Forced : Нет

Текст #2
Идентификатор : 5
Формат : UTF-8
Идентификатор кодека : S_TEXT/UTF8
Идентификатор кодека/Информация : UTF-8 Plain Text
Продолжительность : 1 ч. 40 м.
Битрейт : 88 бит/сек
ElementCount : 1268
Размер потока : 65,1 Кбайт (0%)
Язык : Russian
Default : Нет
Forced : Нет

Текст #3
Идентификатор : 6
Формат : UTF-8
Идентификатор кодека : S_TEXT/UTF8
Идентификатор кодека/Информация : UTF-8 Plain Text
Продолжительность : 1 ч. 40 м.
Битрейт : 92 бит/сек
ElementCount : 1277
Размер потока : 68,2 Кбайт (0%)
Язык : Russian
Default : Нет
Forced : Нет

Текст #4
Идентификатор : 7
Формат : UTF-8
Идентификатор кодека : S_TEXT/UTF8
Идентификатор кодека/Информация : UTF-8 Plain Text
Продолжительность : 1 ч. 42 м.
Битрейт : 66 бит/сек
ElementCount : 1395
Размер потока : 49,9 Кбайт (0%)
Язык : English
Default : Нет
Forced : Нет

Текст #5
Идентификатор : 8
Формат : UTF-8
Идентификатор кодека : S_TEXT/UTF8
Идентификатор кодека/Информация : UTF-8 Plain Text
Продолжительность : 1 ч. 38 м.
Битрейт : 69 бит/сек
ElementCount : 1394
Размер потока : 50,3 Кбайт (0%)
Заголовок : SDH
Язык : English
Default : Нет
Forced : Нет

Меню
00:00:00.000 : en:Chapter 01
00:03:00.471 : en:Chapter 02
00:07:28.865 : en:Chapter 03
00:10:59.533 : en:Chapter 04
00:12:24.410 : en:Chapter 05
00:16:45.087 : en:Chapter 06
00:19:54.735 : en:Chapter 07
00:25:16.348 : en:Chapter 08
00:29:32.437 : en:Chapter 09
00:31:48.406 : en:Chapter 10
00:35:08.648 : en:Chapter 11
00:39:31.452 : en:Chapter 12
00:46:17.608 : en:Chapter 13
00:48:36.413 : en:Chapter 14
00:51:59.324 : en:Chapter 15
00:55:27.866 : en:Chapter 16
00:58:37.889 : en:Chapter 17
01:00:55.276 : en:Chapter 18
01:02:39.881 : en:Chapter 19
01:06:41.747 : en:Chapter 20
01:08:17.635 : en:Chapter 21
01:10:05.951 : en:Chapter 22
01:17:05.245 : en:Chapter 23
01:20:06.134 : en:Chapter 24
01:24:10.170 : en:Chapter 25
01:31:38.409 : en:Chapter 26
01:34:26.994 : en:Chapter 27
01:36:32.703 : en:Chapter 28
01:40:09.420 : en:Chapter 29

Просьба к переливающим на другие сайты, в оформлении указывайте пожалуйста авторство группы R.G. HD-Films pb.wtf



Скачать Последний бойскаут через торрент https://i86.fastpic.ru/big/2019/0920/e6/de92f849b5a1d0e214bd7fd0b6c041e6.png Скачать фильм Последний бойскаут через торрент бесплантно в хорошем качестве В ролях: Брюс Уиллис, Дэймон Уайанс, Челси Филд, Ноубл Уиллингэм, Тейлор Негрон, Даниэль Харрис, Холли Берри, Брюс МакГилл, Баджа Джола, ... 10 10 12
Торрент: Зарегистрирован [2020-04-30 14:43] · скачан: 117 раз
Статус: √ проверено
Размер: 4.05 GB
Как cкачать? Как скачать Последний бойскаут через торрент | UTorrent

28-11-2019 20:33  

Отключить всю рекламу на сайте

30-04-2020 15:35 Последний бойскаут Скачать торрент  

Один из лучших фильмов с Брюсом.10 из 10pb.wtf



30-04-2020 15:45 Последний бойскаут Скачать торрент  

Спасибо. Смотрите в удовольствие.pb.wtf



01-05-2020 05:47 Последний бойскаут Скачать торрент  

Внимание, скачивающим!
Фильм в раздаче с 60-тью фпс.

Смотрится как отечественный шлако-сериал.pb.wtf



01-05-2020 08:11 Последний бойскаут Скачать торрент  

PiratMan писал(а):

Внимание, скачивающим!
Фильм в раздаче с 60-тью фпс.

Смотрится как отечественный шлако-сериал.

Иди троль к себе в туалет! Придурь! Грамотный человек понимает что такое 60fps и если это не его пройдёт стороной! А безграмотная амеба вроде тебя будет шариться по топикам и шлачить везде так как в голове то и на извилину не хватает!pb.wtf



01-05-2020 08:36 Последний бойскаут Скачать торрент  

Спасибо большое за отличный олд скул-боевик!!! Сюжет оригинальный, актёры играют на ура. Наконец-то заимел к себе в collection!!!

А кому не нравится смотреть отличные фильмы в 60fps могут сразу идти на х.. и смотреть черно-белую классику без звука в сопровождении собственного пука.pb.wtf



    Дорогой пользователь! Огромная просьба, поблагодарите релизера, оцените раздачу и оставьте свои комментарий, если Вы скачали Последний бойскаут через торрент бесплатно! Внесите свою лепту в развитие PiratBit!
    Комментировать посты могут только пользователи прошедшие не сложную регистрацию
    Показать сообщения:    

    Последний бойскаут через торрент
    Скачать бесплатно Последний бойскаут
    Последний бойскаут скачать торрент
    Последний бойскаут смотреть онлайн
    Cкачать фильм Последний бойскаут бесплатно
    Последний бойскаут скачать торрент в хорошем качестве
    Последний бойскаут смотреть онлайн бесплатно в хорошем качестве


    Вы не можете начинать темы
    Вы не можете отвечать на сообщения
    Вы не можете редактировать свои сообщения
    Вы не можете удалять свои сообщения
    Вы не можете голосовать в опросах
    Вы не можете прикреплять файлы к сообщениям
    Вы можете скачивать файлы