Ссылка на приватное зеркало нашего сайта всего за 1$. Внимание количество ограничено!!!

2 сезон

iTunes

1 сезон

1

2 сезон

2 сезон

iTunes

1 сезон

RePack

30

Ultimate

ВАЖНО

ИГРА 18+

pack

RePack

MK11
pack

Забери бонус

RePack

jed

!!Акция!!

Alien_Rage

RePack

fifa19

RePack

Assassins Creed: Odyssey

RePack

NEED FOR SPEED™ PAYBACK

4 сезон

9 сезон

Бесстыжие 9 сезон

Все сериалы

все сериалы на PB.wtf

RePack

FAR CRY 5
  

Совокупность лжи / Body of Lies (Ридли Скотт) [2008 г., боевик, триллер, драма, BDRip 720p / 60 FPS, Дубляж] pb.wtf

Совокупность лжи через торрент pb.wtf

Размер: 3.92 GB | Добавлен: 7 мес. назад | Торрент скачан:50 раз
Скачать  

01-05-2020 01:33 Совокупность лжи Скачать торрент  

Совокупность лжи / Body of Lies
Год выпуска: 2008
Страна: США
Жанр: боевик, триллер, драма
Продолжительность: 02:08:19
Перевод: Дубляж
Субтитры: Russian, Ukrainian, English

Режиссер: Ридли Скотт

Бюджет: $70 000 000

В ролях: Леонардо ДиКаприо, Рассел Кроу, Марк Стронг, Голшифт Фарахани, Оскар Айзек, Али Сулимэн, Алон Абутбул, Винс Колосимо, Саймон МакБерни, Мехди Неббу, Майкл Гэстон, Каис Насеф, Джамил Хури, Лубна Азабаль, Гали Бенлафких, Юссеф Сронди, Али Халил

Описание: ЦРУ охотится на руководителя серии террористических атак. Роджер Феррис является агентом национальной разведки, он перемещается по всему свету, пытаясь предотвратить любые нежелательные события. Око в небе, спутник, наблюдает за ним. На другом конце этой связи ветеран ЦРУ Эд Хоффман, который отслеживает события издалека. Чем ближе подбирается Феррис к своей цели, тем явственнее понимает, что доверие — это одновременно и опасная штука, и то единственное, что позволит ему остаться в живых...

Качество: BDRip 720p / 60 FPS
Формат: MKV
Видео кодек: H.264
Аудио кодек: AC3
Видео: x264, 1280x532 (2.40:1), 59,940 fps, 4 000 Kbps ( 0.100 bpp)
Аудио#1: Русский, AC-3, 48.0 KHz, 6 ch, 384 Kbps
скриншот   скриншот   скриншот   скриншот  
Общее
Уникальный идентификатор : 191618828754257026311722077375376918168 (0x902871AB55E80A3AA5975291FB6C0698)
Полное имя : Z:\На заливку\Совокупность лжи.2008.BDRip.720p.(60Fps).mkv
Формат : Matroska
Версия формата : Version 4
Размер файла : 3,92 Гбайт
Продолжительность : 2 ч. 8 м.
Общий поток : 4 375 Кбит/сек
Название фильма : Совокупность лжи.2008.BDRip.720p.(60Fps)
Дата кодирования : UTC 2020-04-30 18:38:17
Программа кодирования : mkvmerge v7.2.0 ('On Every Street') 64bit built on Sep 13 2014 15:52:10
Библиотека кодирования : libebml v1.3.0 + libmatroska v1.4.1

Видео
Идентификатор : 1
Формат : AVC
Формат/Информация : Advanced Video Codec
Профиль формата : High@L4.1
Настройки формата : CABAC / 4 Ref Frames
Параметр CABAC формата : Да
Параметр RefFrames формата : 4 кадра
Идентификатор кодека : V_MPEG4/ISO/AVC
Продолжительность : 2 ч. 8 м.
Битрейт : 4 000 Кбит/сек
Ширина : 1 280 пикселей
Высота : 528 пикселей
Соотношение сторон : 2,40:1
Режим частоты кадров : Постоянный
Частота кадров : 59,940 кадров/сек
Цветовое пространство : YUV
Субдискретизация насыщенности : 4:2:0
Битовая глубина : 8 бит
Тип развёртки : Прогрессивная
Бит/(Пиксели*Кадры) : 0.099
Размер потока : 3,57 Гбайт (91%)
Библиотека кодирования : x264 core 148 r2638 7599210
Настройки программы : cabac=1 / ref=3 / deblock=1:0:0 / analyse=0x3:0x113 / me=umh / subme=9 / psy=1 / psy_rd=1.00:0.10 / mixed_ref=1 / me_range=32 / chroma_me=1 / trellis=2 / 8x8dct=1 / cqm=0 / deadzone=21,11 / fast_pskip=0 / chroma_qp_offset=-3 / threads=6 / lookahead_threads=1 / sliced_threads=0 / nr=0 / decimate=1 / interlaced=0 / bluray_compat=0 / constrained_intra=0 / bframes=16 / b_pyramid=2 / b_adapt=2 / b_bias=0 / direct=3 / weightb=1 / open_gop=0 / weightp=2 / keyint=250 / keyint_min=25 / scenecut=40 / intra_refresh=0 / rc_lookahead=40 / rc=2pass / mbtree=1 / bitrate=4000 / ratetol=1.0 / qcomp=0.60 / qpmin=0 / qpmax=69 / qpstep=4 / cplxblur=20.0 / qblur=0.5 / vbv_maxrate=14000 / vbv_bufsize=14000 / nal_hrd=none / filler=0 / ip_ratio=1.40 / aq=1:1.00
Язык : English
Default : Да
Forced : Нет

Аудио
Идентификатор : 2
Формат : AC-3
Формат/Информация : Audio Coding 3
Коммерческое название : Dolby Digital
Идентификатор кодека : A_AC3
Продолжительность : 2 ч. 8 м.
Вид битрейта : Постоянный
Битрейт : 384 Кбит/сек
Каналы : 6 каналов
Channel layout : L R C LFE Ls Rs
Частота : 48,0 КГц
Частота кадров : 31,250 кадров/сек (1536 SPF)
Метод сжатия : С потерями
Размер потока : 352 Мбайт (9%)
Заголовок : Дубляж AC3 6ch 384kbps
Язык : Russian
Service kind : Complete Main
Default : Да
Forced : Нет

Текст #1
Идентификатор : 3
Формат : UTF-8
Идентификатор кодека : S_TEXT/UTF8
Идентификатор кодека/Информация : UTF-8 Plain Text
Продолжительность : 2 ч. 7 м.
Битрейт : 6 бит/сек
Count of elements : 134
Размер потока : 6,21 Кбайт (0%)
Заголовок : Only
Язык : Russian
Default : Да
Forced : Нет

Текст #2
Идентификатор : 4
Формат : UTF-8
Идентификатор кодека : S_TEXT/UTF8
Идентификатор кодека/Информация : UTF-8 Plain Text
Продолжительность : 2 ч. 7 м.
Битрейт : 6 бит/сек
Count of elements : 137
Размер потока : 6,27 Кбайт (0%)
Язык : Ukrainian
Default : Нет
Forced : Нет

Текст #3
Идентификатор : 5
Формат : UTF-8
Идентификатор кодека : S_TEXT/UTF8
Идентификатор кодека/Информация : UTF-8 Plain Text
Продолжительность : 2 ч. 1 м.
Битрейт : 115 бит/сек
Count of elements : 1623
Размер потока : 103 Кбайт (0%)
Язык : Russian
Default : Нет
Forced : Нет

Текст #4
Идентификатор : 6
Формат : UTF-8
Идентификатор кодека : S_TEXT/UTF8
Идентификатор кодека/Информация : UTF-8 Plain Text
Продолжительность : 2 ч. 0 м.
Битрейт : 71 бит/сек
Count of elements : 1726
Размер потока : 63,3 Кбайт (0%)
Язык : English
Default : Нет
Forced : Нетpb.wtf



Скачать Совокупность лжи через торрент http://pic1.kartinco.top/images/12/g7io4.jpg Скачать фильм Совокупность лжи через торрент бесплантно в хорошем качестве Описание: ЦРУ охотится на руководителя серии террористических атак. Роджер Феррис является агентом национальной разведки, он перемещается ... 10 10 2
Торрент: Зарегистрирован [2020-05-01 01:33] · скачан: 50 раз
Статус: √ проверено
Размер: 3.92 GB
Как cкачать? Как скачать Совокупность лжи через торрент | qTorrent

% Раздел Тема Автор DL S | L
Фильмы [HD 720p, 1080p] (Хороший звук DUB, MVO) [ 10.92 GB ] Совокупность лжи / Body of Lies [2008 военный BDRip-HEVC 1080p ] DUB [ CEE] bober100 Скачать
1 | 0
Фильмы (WEB-DL 720p, 1080p) [ 16.05 GB ] Совокупность лжи / Body of Lies [2008 военный WEB-DL 1080p ] [Open Matte] Dub+MVO+4xAVO sheker187 Скачать
1 | 0
Фильмы [HD 720p, 1080p] (Хороший звук DUB, MVO) [ 12.73 GB ] Совокупность лжи / Body of Lies [2008 BDRip 1080p от _denis_100 / NNNB] DUB DVO 3xAVO _denis_100 Скачать
1 | 0
Фильмы [HD 720p, 1080p] (Хороший звук DUB, MVO) [ 7.76 GB ] Совокупность лжи / Body of Lies [2008 BDRip 720p от _denis_100 / NNNB] DUB DVO 3xAVO _denis_100 Скачать
1 | 0
Фильмы [HD 720p, 1080p] (Хороший звук DUB, MVO) [ 7.92 GB ] Совокупность лжи / Body of Lies [2008 жанр BDRip ] DUB + Original + Commentary + SUB shuller Скачать
1 | 0
Фильмы 2006-2008 [ 1.46 GB ] Совокупность лжи / Body of Lies [2008 HDRip] Anonymous Скачать
1 | 0
Фильмы [HD 720p, 1080p] (Хороший звук DUB, MVO) [ 8.29 GB ] Совокупность лжи / Body of Lies [2008 BDRip 1080p] diletant Скачать
1 | 0


Последний раз редактировалось: alien2015 (2020-05-01 04:15), всего редактировалось 10 раз(а)

28-11-2019 20:33  

Отключить всю рекламу на сайте

    Дорогой пользователь! Огромная просьба, поблагодарите релизера, оцените раздачу и оставьте свои комментарий, если Вы скачали Совокупность лжи через торрент бесплатно! Внесите свою лепту в развитие PiratBit!
    Комментировать посты могут только пользователи прошедшие не сложную регистрацию
    Показать сообщения:    

    Совокупность лжи через торрент
    Скачать бесплатно Совокупность лжи
    Совокупность лжи скачать торрент
    Совокупность лжи смотреть онлайн
    Cкачать фильм Совокупность лжи бесплатно
    Совокупность лжи скачать торрент в хорошем качестве
    Совокупность лжи смотреть онлайн бесплатно в хорошем качестве


    Вы не можете начинать темы
    Вы не можете отвечать на сообщения
    Вы не можете редактировать свои сообщения
    Вы не можете удалять свои сообщения
    Вы не можете голосовать в опросах
    Вы не можете прикреплять файлы к сообщениям
    Вы можете скачивать файлы