2 сезон

iTunes

MVO

1

2 сезон

iTunes

iTunes

1 сезон

RePack

30

Ultimate

ВАЖНО

ИГРА 18+

pack

RePack

MK11
pack

Легкие деньги

RePack

jed

RePack

fifa19

RePack

RDR2

RePack

NEED FOR SPEED™ PAYBACK

4 сезон

9 сезон

Бесстыжие 9 сезон

Все сериалы

все сериалы на PB.wtf

RePack

FAR CRY 5

Anonymous, доброе утро, мы не успеваем собрать деньги на оплату серверов за декабрь и январь, помогите нам пожалуйста в это трудное время. В качестве благодарности мы отключим Вам всю рекламу на сайте (укажите свой ник в строку Ваше имя)!

×
  
Magnet ссылка

Наёмные убийцы / Assassins (Ричард Доннер) [1995, Боевик, триллер, криминал, BDRip 720p / 60 FPS] DVO [НТВ+] pb.wtf

Наёмные убийцы через торрент pb.wtf

Раздают: 1 [ 0 KB/s ]
Размер: 3.89 GB | Добавлен: 8 мес. назад | Торрент скачан:53 раза
Скачать  

01-05-2020 05:28 Наёмные убийцы Скачать торрент  

Наёмные убийцы / Assassins
Год выпуска: 1995
Страна: Франция, США
Жанр: Боевик, триллер, криминал
Продолжительность: 02:12:45
Перевод: Профессиональный двухголосый закадровый [НТВ+]
Субтитры: русские, английские

Режиссер: Ричард Доннер

В ролях: Сильвестр Сталлоне, Антонио Бандерас, Джулианна Мур, Анатолий Давыдов, Мьюз Уотсон, Стив Кэхэн, Келли Роуэн, Рид Даймонд, Кай Вулфф, Керри Скалски, Джеймс Дуглас Хэскинс, Стивен Лиска, Джон Хармс, Эдвард Дж. Розен, Кристина Орчид, Брюс Р. Орчид, Джеймс Оливер, Сью Кэролин Уайз, Рон Бен Джарретт, Мэриэн Колье

Описание: Роберт Рэт - лучший киллер в округе, но кодекс чести и чувство долга, что некогда составляли часть его смертельной карьеры, исчезли. Мир, возникший после Холодной войны, переполнен «отморозками». Рэт хочет «завязать». Другой киллер, Мигель Бэйн, амбициозный молодой человек - напротив желает стать первым в своем деле, и знает, как это сделать: уничтожить Рэта. Действие разворачивается стремительно и непредсказуемо, когда Сильвестр Сталлоне в роли Рэта и Антонио Бандерас в роли Бэйна защищают свою профессиональную честь наёмных убийц. Джулианна Мур играет хитрого хакера, затянутого в жестокую схватку киллерского дуэта.

Качество: BDRip 720p / 60 FPS
Формат: MKV
Видео кодек: H.264
Аудио кодек: AC3
Видео: x264, 1280 x 720 ( 16:9 ), 4000 kbps, 59,940 fps, ( 0.072 bpp)
Аудио#1: AC-3, 48.0 KHz, 2 ch, 192 Kbps ( Профессиональный двухголосый закадровый [НТВ+] )
скриншот   скриншот   скриншот  

Общее
Уникальный идентификатор : 215757234789757004537950785665404681248 (0xA25154F8B52A9CBB97FD4DFCAC3EBC20)
Полное имя : Z:\На заливку\Убийцы.1995.BDRip.720p.(60Fps).mkv
Формат : Matroska
Версия формата : Version 4
Размер файла : 3,89 Гбайт
Продолжительность : 2 ч. 12 м.
Общий поток : 4 194 Кбит/сек
Название фильма : Убийцы.1995.BDRip.720p
Дата кодирования : UTC 2020-04-28 18:16:52
Программа кодирования : mkvmerge v7.2.0 ('On Every Street') 64bit built on Sep 13 2014 15:52:10
Библиотека кодирования : libebml v1.3.0 + libmatroska v1.4.1

Видео
Идентификатор : 1
Формат : AVC
Формат/Информация : Advanced Video Codec
Профиль формата : High@L4.1
Настройки формата : CABAC / 4 Ref Frames
Параметр CABAC формата : Да
Параметр RefFrames формата : 4 кадра
Идентификатор кодека : V_MPEG4/ISO/AVC
Продолжительность : 2 ч. 12 м.
Битрейт : 4 000 Кбит/сек
Ширина : 1 280 пикселей
Высота : 720 пикселей
Соотношение сторон : 16:9
Режим частоты кадров : Постоянный
Частота кадров : 59,940 кадров/сек
Цветовое пространство : YUV
Субдискретизация насыщенности : 4:2:0
Битовая глубина : 8 бит
Тип развёртки : Прогрессивная
Бит/(Пиксели*Кадры) : 0.072
Размер потока : 3,71 Гбайт (95%)
Библиотека кодирования : x264 core 148 r2638 7599210
Настройки программы : cabac=1 / ref=3 / deblock=1:0:0 / analyse=0x3:0x113 / me=umh / subme=9 / psy=1 / psy_rd=1.00:0.10 / mixed_ref=1 / me_range=32 / chroma_me=1 / trellis=2 / 8x8dct=1 / cqm=0 / deadzone=21,11 / fast_pskip=0 / chroma_qp_offset=-3 / threads=6 / lookahead_threads=1 / sliced_threads=0 / nr=0 / decimate=1 / interlaced=0 / bluray_compat=0 / constrained_intra=0 / bframes=16 / b_pyramid=2 / b_adapt=2 / b_bias=0 / direct=3 / weightb=1 / open_gop=0 / weightp=2 / keyint=250 / keyint_min=25 / scenecut=40 / intra_refresh=0 / rc_lookahead=40 / rc=2pass / mbtree=1 / bitrate=4000 / ratetol=1.0 / qcomp=0.60 / qpmin=0 / qpmax=69 / qpstep=4 / cplxblur=20.0 / qblur=0.5 / vbv_maxrate=14000 / vbv_bufsize=14000 / nal_hrd=none / filler=0 / ip_ratio=1.40 / aq=1:1.00
Язык : English
Default : Да
Forced : Нет

Аудио
Идентификатор : 2
Формат : AC-3
Формат/Информация : Audio Coding 3
Коммерческое название : Dolby Digital
Идентификатор кодека : A_AC3
Продолжительность : 2 ч. 12 м.
Вид битрейта : Постоянный
Битрейт : 192 Кбит/сек
Каналы : 2 канала
Channel layout : L R
Частота : 48,0 КГц
Частота кадров : 31,250 кадров/сек (1536 SPF)
Метод сжатия : С потерями
Размер потока : 182 Мбайт (5%)
Заголовок : |Двухголосый закадровый, НТВ|
Язык : Russian
Service kind : Complete Main
Default : Нет
Forced : Нет

Текст #1
Идентификатор : 3
Формат : UTF-8
Идентификатор кодека : S_TEXT/UTF8
Идентификатор кодека/Информация : UTF-8 Plain Text
Продолжительность : 2 ч. 6 м.
Битрейт : 46 бит/сек
Count of elements : 1116
Размер потока : 43,3 Кбайт (0%)
Язык : Russian
Default : Нет
Forced : Нет

Текст #2
Идентификатор : 4
Формат : UTF-8
Идентификатор кодека : S_TEXT/UTF8
Идентификатор кодека/Информация : UTF-8 Plain Text
Продолжительность : 2 ч. 12 м.
Битрейт : 37 бит/сек
Count of elements : 1298
Размер потока : 36,5 Кбайт (0%)
Заголовок : English
Язык : English
Default : Нет
Forced : Нет

Меню
00:00:00.000 : en:Marks Past / Present
00:05:35.293 : en:Next Mark
00:10:00.934 : en:Another Assassin
00:14:44.467 : en:Officers Down
00:17:39.100 : en:New Wheels
00:19:01.640 : en:Chat With Passenger
00:24:35.015 : en:Reckless Driving
00:30:03.719 : en:Bishop Takes Pawn
00:31:34.184 : en:New Mark
00:34:57.804 : en:A Watchful Eye
00:36:47.414 : en:Furry Mischief
00:37:56.774 : en:The Players Gather
00:44:13.442 : en:Miguel Strikes
00:48:12.473 : en:Unfinished Mark
00:55:02.216 : en:Death Up Close
00:59:54.925 : en:Birthday Blast
01:03:05.699 : en:Two Nobody's
01:06:50.506 : en:Reassigned
01:08:38.448 : en:Way to a Million
01:12:37.270 : en:Payoff For Keeps
01:17:07.331 : en:New Arrangements
01:20:52.556 : en:The Desired Mark
01:22:00.499 : en:Memory Hotel
01:27:24.281 : en:Day of the Dead
01:31:34.989 : en:Cemetery Cat/Mouse
01:35:18.004 : en:The Waiting Game
01:41:39.802 : en:Warm Stories
01:42:59.840 : en:Out of Patience
01:46:12.116 : en:Lady Takes Chance
01:47:33.530 : en:Final Chitchat
01:52:24.196 : en:Pulling Trigger
01:55:42.602 : en:Bullets In Ruin
01:57:09.773 : en:Falling Down
01:59:17.984 : en:The Contractor
02:01:53.640 : en:The Correct Mark
02:03:05.712 : en:"No Goodbyes"
02:06:34.879 : en:End Credits

pb.wtf



Скачать Наёмные убийцы через торрент http://i73.fastpic.ru/big/2016/0222/08/2de525df2cf3a4c8d9cdfc54fe51b408.jpg Скачать фильм Наёмные убийцы через торрент бесплантно в хорошем качестве Описание: Роберт Рэт - лучший киллер в округе, но кодекс чести и чувство долга, что некогда составляли часть его смертельной карьеры, ... 10 10 6
Торрент: Зарегистрирован [2020-05-01 05:28] · скачан: 53 раз
Статус: √ проверено
Размер: 3.89 GB
Как cкачать? Как скачать Наёмные убийцы через торрент | UTorrent

% Раздел Тема Автор DL S | L
Фильмы [HD 720p, 1080p] (Хороший звук DUB, MVO) [ 12.98 GB ] Наёмные убийцы / Assassins [1995 BDRip 720p] DUB DVO VO 3xAVO Леонид Ильич Скачать
2 | 0
Фильмы до 2000 г. [ 1.46 GB ] Наемные убийцы / Assassins [1995 BDRip] DUB gunk Скачать
1 | 0
Фильмы до 2000 г. [ 1.46 GB ] Наемные убийцы / Assassins [1995 DVDRip] markfiter Скачать
1 | 0
Фильмы до 2000 г. [ 1.37 GB ] Наемные убийцы / Assassins [1995 ... DVDRip] kycher1972 Скачать
1 | 0


Последний раз редактировалось: alien2015 (2020-05-08 09:54), всего редактировалось 5 раз(а)

28-11-2019 20:33  

Отключить всю рекламу на сайте


    Дорогой пользователь! Огромная просьба, поблагодарите релизера, оцените раздачу и оставьте свои комментарий, если Вы скачали Наёмные убийцы через торрент бесплатно! Внесите свою лепту в развитие PiratBit!
    Комментировать посты могут только пользователи прошедшие не сложную регистрацию
    Показать сообщения:    

    Наёмные убийцы через торрент
    Скачать бесплатно Наёмные убийцы
    Наёмные убийцы скачать торрент
    Наёмные убийцы смотреть онлайн
    Cкачать фильм Наёмные убийцы бесплатно
    Наёмные убийцы скачать торрент в хорошем качестве
    Наёмные убийцы смотреть онлайн бесплатно в хорошем качестве


    Вы не можете начинать темы
    Вы не можете отвечать на сообщения
    Вы не можете редактировать свои сообщения
    Вы не можете удалять свои сообщения
    Вы не можете голосовать в опросах
    Вы не можете прикреплять файлы к сообщениям
    Вы можете скачивать файлы