2 сезон

iTunes

MVO

1

2 сезон

iTunes

iTunes

1 сезон

RePack

30

Новинка

ВАЖНО

ИГРА 18+

pack

RePack

MK11
pack

Легкие деньги

RePack

jed

RePack

fifa19

RePack

RDR2

RePack

NEED FOR SPEED™ PAYBACK

4 сезон

9 сезон

Бесстыжие 9 сезон

Все сериалы

все сериалы на PB.wtf

RePack

FAR CRY 5

Anonymous, доброй ночи, мы не успеваем собрать деньги на оплату серверов за декабрь и январь, помогите нам пожалуйста в это трудное время. В качестве благодарности мы отключим Вам всю рекламу на сайте (укажите свой ник в строку Ваше имя)!

×
  
Magnet ссылка

Управление гневом / Anger Management (Питер Сигал) [2003, мелодрама, комедия, BDRip 720p / 60 FPS, Дубляж] pb.wtf

Управление гневом через торрент pb.wtf

Размер: 3.4 GB | Добавлен: 8 мес. назад | Торрент скачан:33 раза
Скачать  

01-05-2020 08:54 Управление гневом Скачать торрент  

Управление гневом / Anger Management
Год выпуска: 2003
Страна: США
Жанр: мелодрама, комедия
Продолжительность: 01:45:02
Перевод: Дубляж
Субтитры: русские, английские

Режиссер: Питер Сигал

В ролях: Адам Сэндлер, Джек Николсон, Мариса Томей, Луис Гусман, Аллен Коверт, Линн Тигпен, Курт Фуллер, Джонатан Лоугрэн, Криста Аллен, Дженьюэри Джонс, Вуди Харрельсон, Джон Туртурро, Кевин Нилон, Конрад Гуд, Джина Гальего, Нэнси Карелл, Дон Даймонт, Айзек С. Синглтон мл., Рудольф Джулиани, Хезер Грэм

Описание: Скромному клерку отчаянно не везёт. Парня по обвинению в оскорблении бортпроводницы приговаривают к лечению у психиатра. Но верно говорят, что большинство психиатров сами немного безумны. Или сильно не в себе…

Качество: BDRip 720p / 60 FPS
Формат: MKV
Видео кодек: H.264
Аудио кодек: AC3
Видео: x264, 1280 x 536 ( 2,40:1 ), 4000 kbps, 59,940 fps, ( 0.099 bpp)
Аудио#1: AC-3, 48.0 KHz, 6 ch, 640 Kbps
скриншот   скриншот   скриншот   скриншот   скриншот  

Общее
Уникальный идентификатор : 249038154080934956797925996430503486693 (0xBB5B00FA9B0F10FFB7D7A00CD544A4E5)
Полное имя : Z:\На заливку\Управление Гневом. BDRip.720p.(60Fps).mkv
Формат : Matroska
Версия формата : Version 4
Размер файла : 3,40 Гбайт
Продолжительность : 1 ч. 45 м.
Общий поток : 4 639 Кбит/сек
Название фильма : Управление Гневом. BDRip.720p.(60Fps)
Дата кодирования : UTC 2020-04-28 18:06:42
Программа кодирования : mkvmerge v7.2.0 ('On Every Street') 64bit built on Sep 13 2014 15:52:10
Библиотека кодирования : libebml v1.3.0 + libmatroska v1.4.1

Видео
Идентификатор : 1
Формат : AVC
Формат/Информация : Advanced Video Codec
Профиль формата : High@L4.1
Настройки формата : CABAC / 4 Ref Frames
Параметр CABAC формата : Да
Параметр RefFrames формата : 4 кадра
Идентификатор кодека : V_MPEG4/ISO/AVC
Продолжительность : 1 ч. 45 м.
Битрейт : 4 000 Кбит/сек
Ширина : 1 280 пикселей
Высота : 536 пикселей
Соотношение сторон : 2,40:1
Режим частоты кадров : Постоянный
Частота кадров : 59,940 кадров/сек
Цветовое пространство : YUV
Субдискретизация насыщенности : 4:2:0
Битовая глубина : 8 бит
Тип развёртки : Прогрессивная
Бит/(Пиксели*Кадры) : 0.099
Размер потока : 2,93 Гбайт (86%)
Библиотека кодирования : x264 core 148 r2638 7599210
Настройки программы : cabac=1 / ref=3 / deblock=1:0:0 / analyse=0x3:0x113 / me=umh / subme=9 / psy=1 / psy_rd=1.00:0.10 / mixed_ref=1 / me_range=32 / chroma_me=1 / trellis=2 / 8x8dct=1 / cqm=0 / deadzone=21,11 / fast_pskip=0 / chroma_qp_offset=-3 / threads=6 / lookahead_threads=1 / sliced_threads=0 / nr=0 / decimate=1 / interlaced=0 / bluray_compat=0 / constrained_intra=0 / bframes=16 / b_pyramid=2 / b_adapt=2 / b_bias=0 / direct=3 / weightb=1 / open_gop=0 / weightp=2 / keyint=250 / keyint_min=25 / scenecut=40 / intra_refresh=0 / rc_lookahead=40 / rc=2pass / mbtree=1 / bitrate=4000 / ratetol=1.0 / qcomp=0.60 / qpmin=0 / qpmax=69 / qpstep=4 / cplxblur=20.0 / qblur=0.5 / vbv_maxrate=14000 / vbv_bufsize=14000 / nal_hrd=none / filler=0 / ip_ratio=1.40 / aq=1:1.00
Язык : English
Default : Да
Forced : Нет

Аудио
Идентификатор : 2
Формат : AC-3
Формат/Информация : Audio Coding 3
Коммерческое название : Dolby Digital
Идентификатор кодека : A_AC3
Продолжительность : 1 ч. 45 м.
Вид битрейта : Постоянный
Битрейт : 640 Кбит/сек
Каналы : 6 каналов
Channel layout : L R C LFE Ls Rs
Частота : 48,0 КГц
Частота кадров : 31,250 кадров/сек (1536 SPF)
Метод сжатия : С потерями
Размер потока : 481 Мбайт (14%)
Заголовок : AC3, 640 kbps
Язык : Russian
Service kind : Complete Main
Default : Да
Forced : Нет

Текст #1
Идентификатор : 3
Формат : UTF-8
Идентификатор кодека : S_TEXT/UTF8
Идентификатор кодека/Информация : UTF-8 Plain Text
Продолжительность : 1 ч. 36 м.
Битрейт : 141 бит/сек
Count of elements : 1519
Размер потока : 99,7 Кбайт (0%)
Язык : Russian
Default : Нет
Forced : Нет

Текст #2
Идентификатор : 4
Формат : UTF-8
Идентификатор кодека : S_TEXT/UTF8
Идентификатор кодека/Информация : UTF-8 Plain Text
Продолжительность : 1 ч. 36 м.
Битрейт : 78 бит/сек
Count of elements : 1498
Размер потока : 55,3 Кбайт (0%)
Язык : English
Default : Нет
Forced : Нет

pb.wtf



Скачать Управление гневом через торрент http://pic1.kartinco.top/images/12/w1sbe.jpg Скачать фильм Управление гневом через торрент бесплантно в хорошем качестве Описание: Скромному клерку отчаянно не везёт. Парня по обвинению в оскорблении бортпроводницы приговаривают к лечению у психиатра. Но верно ... 8.8 10 6
Торрент: Зарегистрирован [2020-05-01 08:54] · скачан: 33 раз
Статус: √ проверено
Размер: 3.4 GB
Как cкачать? Как скачать Управление гневом через торрент | UTorrent

% Раздел Тема Автор DL S | L
Фильмы [HD 720p, 1080p] (Хороший звук DUB, MVO) [ 10.04 GB ] Управление гневом / Anger Management [2003 BDRip 1080p by msltel] DUB msltel Скачать
1 | 0
Фильмы [HD 720p, 1080p] (Хороший звук DUB, MVO) [ 4.35 GB ] Управление гневом / Anger Management [2003 BDRip 720p by msltel] DUB msltel Скачать
1 | 0
Фильмы 2001-2005 [ 2.18 GB ] Управление гневом / Anger Management [2003 Мело BDRip] m9sо Скачать
1 | 0
Зарубежные сериалы [ 3.07 GB ] Управление гневом / 1 сезон /серии 1-10 / Anger Management [2012 HDTVRip MVO] Alex_E Скачать
1 | 0
Зарубежные сериалы [ 3.07 GB ] Управление гневом / Anger Management / Сезон: 1 / Серии: 1-10 [2012 ситком HDTVRip] MVO wekotila Скачать
1 | 0
Зарубежные сериалы [ 2.13 GB ] Управление гневом / Anger Management / Сезон: 1 / Серии: 10 [2012 ситком HDTVRip] VO Jimmy J + sub wekotila Скачать
1 | 0
Фильмы 2001-2005 [ 2.19 GB ] Управление гневом / Anger Management [2003 BDRip ] MoNaZ Скачать
1 | 0


Последний раз редактировалось: alien2015 (2020-05-08 22:58), всего редактировалось 4 раз(а)

28-11-2019 20:33  

Отключить всю рекламу на сайте


    Дорогой пользователь! Огромная просьба, поблагодарите релизера, оцените раздачу и оставьте свои комментарий, если Вы скачали Управление гневом через торрент бесплатно! Внесите свою лепту в развитие PiratBit!
    Комментировать посты могут только пользователи прошедшие не сложную регистрацию
    Показать сообщения:    

    Управление гневом через торрент
    Скачать бесплатно Управление гневом
    Управление гневом скачать торрент
    Управление гневом смотреть онлайн
    Cкачать фильм Управление гневом бесплатно
    Управление гневом скачать торрент в хорошем качестве
    Управление гневом смотреть онлайн бесплатно в хорошем качестве


    Вы не можете начинать темы
    Вы не можете отвечать на сообщения
    Вы не можете редактировать свои сообщения
    Вы не можете удалять свои сообщения
    Вы не можете голосовать в опросах
    Вы не можете прикреплять файлы к сообщениям
    Вы можете скачивать файлы