Ссылка на приватное зеркало нашего сайта всего за 1$. Внимание количество ограничено!!!

2 сезон

iTunes

1 сезон

1

2 сезон

2 сезон

iTunes

1 сезон

RePack

30

Новинка

ВАЖНО

ИГРА 18+

pack

RePack

MK11
pack

Забери бонус

RePack

jed

!!Акция!!

Alien_Rage

RePack

fifa19

RePack

Assassins Creed: Odyssey

RePack

NEED FOR SPEED™ PAYBACK

4 сезон

9 сезон

Бесстыжие 9 сезон

Все сериалы

все сериалы на PB.wtf

RePack

FAR CRY 5
  

Половина всего / The Half of It (Элис Ву) [2020, комедия, мелодрама, WEB-DL 1080p] DUB [Невафильм / Netflix] pb.wtf

Половина всего через торрент pb.wtf

Раздают: 1 [ 0 KB/s ]
Размер: 4.29 GB | Добавлен: 6 мес. назад | Торрент скачан:148 раз
Скачать  

01-05-2020 08:57 Половина всего Скачать торрент  

Половина всего | The Half of It
Год выпуска: 2020
Страна: США
Студия: Likely Story
Жанр: комедия, мелодрама
Продолжительность: 01:45:16
Перевод: Дублированный | Невафильм по заказу Netflix
Субтитры: русские (Forced, Full), английские (Forced, Full, SDH), немецкие, испанские, финские, французские, итальянские, польские, португальские, шведские

Режиссер: Элис Ву

rating


В ролях: Энрике Мурсиано, Бекки Энн Бэйкер, Леа Льюис, Кэти Куртин, Колин Чоу, Вольфганг Новограц, Алекссис Лемир, Хейли Мерфи, Алекс Д. Дженнингс, Дэниэл Димер и др.

Описание: Школьный спортсмен нанимает отличницу Элли, чтобы она помогла ему добиться руки и сердца местной красавицы. Ситуация заметно осложняется, когда Элли понимает, что Дикон испытывает к ней романтические чувства.

Качество: WEB-DL 1080p
Формат: MKV

Видео: 1920x1080 at 24 fps, MPEG-4 AVC, ~3830 kbps avg
Аудио 1: Russian: 48 kHz, E-AC3, 3/2 (L,C,R,l,r) + LFE ch, ~640 kbps avg | Netflix |
Аудио 2: 48 kHz, E-AC3 Atmos, 3/2 (L,C,R,l,r) + LFE ch, ~768 kbps avg | English |
Аудио 3: 48 kHz, E-AC3, 3/2 (L,C,R,l,r) + LFE ch, ~640 kbps avg | Audio Deion |
скриншот  скриншот  скриншот  

Общее
Уникальный идентификатор : 195331132571223674901415055206449636059 (0x92F36860ED7D747F72B93282D9CF62DB)
Полное имя : The.Half.Of.It.2020.1080p.NF.WEB-DL.DDP5.1.x264-NTG _THD.mkv
Формат : Matroska
Версия формата : Version 4
Размер файла : 4,29 Гбайт
Продолжительность : 1 ч. 45 м.
Режим общего битрейта : Переменный
Общий поток : 5832 Кбит/сек
Дата кодирования : UTC 2020-05-01 08:26:09
Программа кодирования : mkvmerge v45.0.0 ('Heaven in Pеnniеs') 64-bit
Библиотека кодирования : libebml v1.3.10 + libmatroska v1.5.2

Видео
Идентификатор : 1
Формат : AVC
Формат/Информация : Advanced Video Codec
Профиль формата : Main@L4
Настройки формата : CABAC / 3 Ref Frames
Параметр CABAC формата : Да
Параметр RefFrames формата : 3 кадра
Идентификатор кодека : V_MPEG4/ISO/AVC
Продолжительность : 1 ч. 45 м.
Вид битрейта : Переменный
Битрейт : 3830 Кбит/сек
Максимальный битрейт : 5745 Кбит/сек
Ширина : 1920 пикселей
Высота : 1080 пикселей
Соотношение сторон : 16:9
Режим частоты кадров : Постоянный
Частота кадров : 24,000 кадра/сек
Цветовое пространство : YUV
Субдискретизация насыщенности : 4:2:0
Битовая глубина : 8 бит
Тип развёртки : Прогрессивная
Бит/(Пиксели*Кадры) : 0.077
Размер потока : 2,78 Гбайт (65%)
Библиотека кодирования : x264 core 148 r2717 0d2410d
Настройки программы : cabac=1 / ref=3 / deblock=1:0:0 / analyse=0x1:0x111 / me=umh / subme=10 / psy=1 / psy_rd=1.00:0.00 / mixed_ref=1 / me_range=24 / chroma_me=1 / trellis=2 / 8x8dct=0 / cqm=0 / deadzone=21,11 / fast_pskip=1 / chroma_qp_offset=-2 / threads=8 / lookahead_threads=1 / sliced_threads=0 / nr=0 / decimate=1 / interlaced=0 / bluray_compat=0 / stitchable=1 / constrained_intra=0 / bframes=2 / b_pyramid=0 / b_adapt=2 / b_bias=0 / direct=3 / weightb=1 / open_gop=0 / weightp=2 / keyint=250 / keyint_min=24 / scenecut=0 / intra_refresh=0 / rc_lookahead=48 / rc=2pass / mbtree=1 / bitrate=3830 / ratetol=1.0 / qcomp=0.50 / qpmin=6 / qpmax=51 / qpstep=4 / cplxblur=20.0 / qblur=0.5 / vbv_maxrate=5745 / vbv_bufsize=7660 / nal_hrd=vbr / filler=0 / ip_ratio=1.40 / aq=1:1.00
Язык : English
Default : Да
Forced : Нет

Аудио #1
Идентификатор : 2
Формат : E-AC-3
Формат/Информация : Enhanced AC-3
Коммерческое название : Dolby Digital Plus
Идентификатор кодека : A_EAC3
Продолжительность : 1 ч. 45 м.
Вид битрейта : Постоянный
Битрейт : 640 Кбит/сек
Каналы : 6 каналов
ChannelLayout : L R C LFE Ls Rs
Частота : 48,0 КГц
Частота кадров : 31,250 кадров/сек (1536 SPF)
Метод сжатия : С потерями
Размер потока : 482 Мбайт (11%)
Заголовок : Russian
Язык : Russian
ServiceKind : Complete Main
Default : Да
Forced : Нет

Аудио #2
Идентификатор : 3
Формат : E-AC-3 JOC
Формат/Информация : Enhanced AC-3 with Joint Object Coding
Коммерческое название : Dolby Digital Plus with Dolby Atmos
Идентификатор кодека : A_EAC3
Продолжительность : 1 ч. 45 м.
Вид битрейта : Постоянный
Битрейт : 768 Кбит/сек
Каналы : 6 каналов
ChannelLayout : L R C LFE Ls Rs
Частота : 48,0 КГц
Частота кадров : 31,250 кадров/сек (1536 SPF)
Метод сжатия : С потерями
Размер потока : 578 Мбайт (13%)
Заголовок : English
Язык : English
ServiceKind : Complete Main
Default : Нет
Forced : Нет
ComplexityIndex : 16
NumberOfDynamicObjects : 15
BedChannelCount : 1 канал
BedChannelConfiguration : LFE

Аудио #3
Идентификатор : 4
Формат : E-AC-3
Формат/Информация : Enhanced AC-3
Коммерческое название : Dolby Digital Plus
Идентификатор кодека : A_EAC3
Продолжительность : 1 ч. 45 м.
Вид битрейта : Постоянный
Битрейт : 640 Кбит/сек
Каналы : 6 каналов
ChannelLayout : L R C LFE Ls Rs
Частота : 48,0 КГц
Частота кадров : 31,250 кадров/сек (1536 SPF)
Метод сжатия : С потерями
Размер потока : 482 Мбайт (11%)
Заголовок : Audio Deion
Язык : English
ServiceKind : Complete Main
Default : Нет
Forced : Нет

Текст #1
Идентификатор : 5
Формат : UTF-8
Идентификатор кодека : S_TEXT/UTF8
Идентификатор кодека/Информация : UTF-8 Plain Text
Продолжительность : 1 ч. 43 м.
Битрейт : 9 бит/сек
ElementCount : 145
Размер потока : 7,07 Кбайт (0%)
Заголовок : Forced
Язык : Russian
Default : Да
Forced : Нет

Текст #2
Идентификатор : 6
Формат : UTF-8
Идентификатор кодека : S_TEXT/UTF8
Идентификатор кодека/Информация : UTF-8 Plain Text
Продолжительность : 1 ч. 43 м.
Битрейт : 71 бит/сек
ElementCount : 1258
Размер потока : 54,4 Кбайт (0%)
Язык : Russian
Default : Нет
Forced : Нет

Текст #3
Идентификатор : 7
Формат : UTF-8
Идентификатор кодека : S_TEXT/UTF8
Идентификатор кодека/Информация : UTF-8 Plain Text
Продолжительность : 1 ч. 23 м.
Битрейт : 1 бит/сек
ElementCount : 27
Размер потока : 686 байт (0%)
Заголовок : Forced
Язык : English
Default : Нет
Forced : Нет

Текст #4
Идентификатор : 8
Формат : UTF-8
Идентификатор кодека : S_TEXT/UTF8
Идентификатор кодека/Информация : UTF-8 Plain Text
Продолжительность : 1 ч. 42 м.
Битрейт : 52 бит/сек
ElementCount : 1327
Размер потока : 39,2 Кбайт (0%)
Язык : English
Default : Нет
Forced : Нет

Текст #5
Идентификатор : 9
Формат : UTF-8
Идентификатор кодека : S_TEXT/UTF8
Идентификатор кодека/Информация : UTF-8 Plain Text
Продолжительность : 1 ч. 42 м.
Битрейт : 62 бит/сек
ElementCount : 1533
Размер потока : 46,9 Кбайт (0%)
Заголовок : SDH
Язык : English
Default : Нет
Forced : Нет

Текст #6
Идентификатор : 10
Формат : UTF-8
Идентификатор кодека : S_TEXT/UTF8
Идентификатор кодека/Информация : UTF-8 Plain Text
Продолжительность : 1 ч. 43 м.
Битрейт : 47 бит/сек
ElementCount : 1164
Размер потока : 36,2 Кбайт (0%)
Язык : German
Default : Нет
Forced : Нет

Текст #7
Идентификатор : 11
Формат : UTF-8
Идентификатор кодека : S_TEXT/UTF8
Идентификатор кодека/Информация : UTF-8 Plain Text
Продолжительность : 1 ч. 43 м.
Битрейт : 42 бит/сек
ElementCount : 1261
Размер потока : 32,5 Кбайт (0%)
Заголовок : European
Язык : Spanish
Default : Нет
Forced : Нет

Текст #8
Идентификатор : 12
Формат : UTF-8
Идентификатор кодека : S_TEXT/UTF8
Идентификатор кодека/Информация : UTF-8 Plain Text
Продолжительность : 1 ч. 43 м.
Битрейт : 39 бит/сек
ElementCount : 1154
Размер потока : 30,2 Кбайт (0%)
Язык : Finnish
Default : Нет
Forced : Нет

Текст #9
Идентификатор : 13
Формат : UTF-8
Идентификатор кодека : S_TEXT/UTF8
Идентификатор кодека/Информация : UTF-8 Plain Text
Продолжительность : 1 ч. 43 м.
Битрейт : 39 бит/сек
ElementCount : 1206
Размер потока : 30,0 Кбайт (0%)
Язык : French
Default : Нет
Forced : Нет

Текст #10
Идентификатор : 14
Формат : UTF-8
Идентификатор кодека : S_TEXT/UTF8
Идентификатор кодека/Информация : UTF-8 Plain Text
Продолжительность : 1 ч. 43 м.
Битрейт : 43 бит/сек
ElementCount : 1225
Размер потока : 33,3 Кбайт (0%)
Язык : Italian
Default : Нет
Forced : Нет

Текст #11
Идентификатор : 15
Формат : UTF-8
Идентификатор кодека : S_TEXT/UTF8
Идентификатор кодека/Информация : UTF-8 Plain Text
Продолжительность : 1 ч. 43 м.
Битрейт : 39 бит/сек
ElementCount : 1167
Размер потока : 30,2 Кбайт (0%)
Язык : Polish
Default : Нет
Forced : Нет

Текст #12
Идентификатор : 16
Формат : UTF-8
Идентификатор кодека : S_TEXT/UTF8
Идентификатор кодека/Информация : UTF-8 Plain Text
Продолжительность : 1 ч. 43 м.
Битрейт : 43 бит/сек
ElementCount : 1049
Размер потока : 33,1 Кбайт (0%)
Язык : Swedish
Default : Нет
Forced : Нет

pb.wtf



Скачать Половина всего через торрент https://i111.fastpic.ru/big/2020/0501/6e/904865bb236e9325454c61eedf812f6e.jpg Скачать фильм Половина всего через торрент бесплантно в хорошем качестве Описание: Школьный спортсмен нанимает отличницу Элли, чтобы она помогла ему добиться руки и сердца местной красавицы. Ситуация заметно ... 8.3 10 8
Торрент: Зарегистрирован [2020-05-01 08:57] · скачан: 148 раз
Статус: √ проверено
Размер: 4.29 GB
Как cкачать? Как скачать Половина всего через торрент | qTorrent

% Раздел Тема Автор DL S | L
Фильмы 2019-2020 [DVDrip, WEB-DLRip, HDrip] (DUB, MVO) [ 830 MB ] Половина всего / The Half of It [2020 WEB-DLRip] DUB [Невафильм / Netflix] bober100 Скачать
1 | 0
Фильмы 2019-2020 [DVDrip, WEB-DLRip, HDrip] (DUB, MVO) [ 1.46 GB ] Половина всего / The Half of It [2020 WEB-DLRip] DUB [Невафильм / Netflix] bober100 Скачать
3 | 0

28-11-2019 20:33  

Отключить всю рекламу на сайте

    Дорогой пользователь! Огромная просьба, поблагодарите релизера, оцените раздачу и оставьте свои комментарий, если Вы скачали Половина всего через торрент бесплатно! Внесите свою лепту в развитие PiratBit!
    Комментировать посты могут только пользователи прошедшие не сложную регистрацию
    Показать сообщения:    

    Половина всего через торрент
    Скачать бесплатно Половина всего
    Половина всего скачать торрент
    Половина всего смотреть онлайн
    Cкачать фильм Половина всего бесплатно
    Половина всего скачать торрент в хорошем качестве
    Половина всего смотреть онлайн бесплатно в хорошем качестве


    Вы не можете начинать темы
    Вы не можете отвечать на сообщения
    Вы не можете редактировать свои сообщения
    Вы не можете удалять свои сообщения
    Вы не можете голосовать в опросах
    Вы не можете прикреплять файлы к сообщениям
    Вы можете скачивать файлы