Ссылка на приватное зеркало всего за 1$. Внимание количество ограничено!!!

iTunes

iTunes

iTunes

1

iTunes

iTunes

iTunes

iTunes

iTunes

30
pack

Новость дня

ВАЖНО

!!Акция!!

Alien_RageХит недели

RePack

Resident Evil 21

ИГРА 18+

pack

RePack

jed

!!Акция!!

Alien_Rage

RePack

fifa19

RePack

Assassins Creed: Odyssey

RePack

NEED FOR SPEED™ PAYBACK

4 сезон

9 сезон

Бесстыжие 9 сезон

Все сериалы

все сериалы на PB.wtf

RePack

FAR CRY 5
  

Уличный боец 2 / Street Fighter II (Гисабуро Сугии / Gisaburo Sugii) [1994, сёнэн, боевые искусства, приключения, BDRip 720p / 60 FPS] AVO [Сергей Визгунов] pb.wtf

Уличный боец 2 через торрент pb.wtf

Раздают: 7 [ 0 KB/s ]
Размер: 2.97 GB | Добавлен: 26 д. назад | Торрент скачан:55 раз
Скачать  

01-05-2020 09:14 Уличный боец 2 Скачать торрент  

Уличный боец 2 / Street Fighter II
Год выпуска: 1994
Страна: Япония
Жанр: сёнэн, боевые искусства, приключения
Продолжительность: 01:41:26
Перевод: Авторский (одноголосый Сергей Визгунов)
Субтитры: русские

Режиссер: Гисабуро Сугии / Gisaburo Sugii

В ролях: Риу, Кен Мастерс, Байсон, Вега, Чён Ли, Гайл, Сагат

Описание: Преступный синдикат "Теневой закон" собирает данные об уличных бойцах со всего мира и сейчас их основной целью является молодой боец Риу. Но найти его не так-то просто, и "Теневой закон" похищает лучшего друга Риу - Кена. Тем временем Интерпол и американские военные объединяются, чтобы покончить с "Теневым законом".

Качество: BDRip 720p / 60 FPS
Формат: MKV
Видео кодек: H.264
Аудио кодек: AC3
Видео: x264, 1280 x 720 ( 2,40:1 ), 4000 kbps, 59,940 fps, ( 0.072 bpp)
Аудио#1: AC-3, 48.0 KHz, 2 ch, 192 Kbps
Сэмпл |
скриншот   скриншот   скриншот   скриншот   скриншот  

Общее
Уникальный идентификатор : 215633015958081005030626737565409603505 (0xA2396882A0AE3CCE9C1DCA699979EFB1)
Полное имя : Z:\На заливку\Уличный Боец 2. BDRip.720p.(60Fps).mkv
Формат : Matroska
Версия формата : Version 4
Размер файла : 2,97 Гбайт
Продолжительность : 1 ч. 41 м.
Общий поток : 4 186 Кбит/сек
Название фильма : Уличный Боец 2. BDRip.720p.(60Fps)
Дата кодирования : UTC 2020-04-28 18:09:42
Программа кодирования : mkvmerge v7.2.0 ('On Every Street') 64bit built on Sep 13 2014 15:52:10
Библиотека кодирования : libebml v1.3.0 + libmatroska v1.4.1

Видео
Идентификатор : 1
Формат : AVC
Формат/Информация : Advanced Video Codec
Профиль формата : High@L4.1
Настройки формата : CABAC / 4 Ref Frames
Параметр CABAC формата : Да
Параметр RefFrames формата : 4 кадра
Идентификатор кодека : V_MPEG4/ISO/AVC
Продолжительность : 1 ч. 41 м.
Битрейт : 4 000 Кбит/сек
Ширина : 1 280 пикселей
Высота : 720 пикселей
Соотношение сторон : 2,40:1
Режим частоты кадров : Постоянный
Частота кадров : 59,940 кадров/сек
Цветовое пространство : YUV
Субдискретизация насыщенности : 4:2:0
Битовая глубина : 8 бит
Тип развёртки : Прогрессивная
Бит/(Пиксели*Кадры) : 0.072
Размер потока : 2,83 Гбайт (95%)
Библиотека кодирования : x264 core 148 r2638 7599210
Настройки программы : cabac=1 / ref=3 / deblock=1:0:0 / analyse=0x3:0x113 / me=umh / subme=9 / psy=1 / psy_rd=1.00:0.10 / mixed_ref=1 / me_range=32 / chroma_me=1 / trellis=2 / 8x8dct=1 / cqm=0 / deadzone=21,11 / fast_pskip=0 / chroma_qp_offset=-3 / threads=6 / lookahead_threads=1 / sliced_threads=0 / nr=0 / decimate=1 / interlaced=0 / bluray_compat=0 / constrained_intra=0 / bframes=16 / b_pyramid=2 / b_adapt=2 / b_bias=0 / direct=3 / weightb=1 / open_gop=0 / weightp=2 / keyint=250 / keyint_min=25 / scenecut=40 / intra_refresh=0 / rc_lookahead=40 / rc=2pass / mbtree=1 / bitrate=4000 / ratetol=1.0 / qcomp=0.60 / qpmin=0 / qpmax=69 / qpstep=4 / cplxblur=20.0 / qblur=0.5 / vbv_maxrate=14000 / vbv_bufsize=14000 / nal_hrd=none / filler=0 / ip_ratio=1.40 / aq=1:1.00
Язык : English
Default : Да
Forced : Нет

Аудио
Идентификатор : 2
Формат : AC-3
Формат/Информация : Audio Coding 3
Коммерческое название : Dolby Digital
Идентификатор кодека : A_AC3
Продолжительность : 1 ч. 39 м.
Вид битрейта : Постоянный
Битрейт : 192 Кбит/сек
Каналы : 2 канала
Channel layout : L R
Частота : 48,0 КГц
Частота кадров : 31,250 кадров/сек (1536 SPF)
Метод сжатия : С потерями
Размер потока : 137 Мбайт (4%)
Service kind : Complete Main
Default : Да
Forced : Нет

Текст
Идентификатор : 3
Формат : UTF-8
Идентификатор кодека : S_TEXT/UTF8
Идентификатор кодека/Информация : UTF-8 Plain Text
Продолжительность : 1 ч. 30 м.
Битрейт : 47 бит/сек
Count of elements : 563
Размер потока : 31,5 Кбайт (0%)
Default : Да
Forced : Нет

pb.wtf



Скачать Уличный боец 2 через торрент http://i53.fastpic.ru/big/2013/0327/20/2a6fd57c1fc69e0dcb82b82a18373320.jpg Скачать фильм Уличный боец 2 через торрент бесплантно в хорошем качестве Описание: Преступный синдикат "Теневой закон" собирает данные об уличных бойцах со всего мира и сейчас их основной целью является молодой ... 9.7 10 6
Info! Золотая раздача, скачанное не засчитывается.
Торрент: Зарегистрирован [2020-05-01 09:14] · скачан: 55 раз
Статус: √ проверено
Размер: 2.97 GB
Как cкачать? Как скачать Уличный боец 2 через торрент | qTorrent



Последний раз редактировалось: alien2015 (2020-05-09 04:56), всего редактировалось 15 раз(а)

28-11-2019 20:33  

Отключить всю рекламу на сайте

    Дорогой пользователь! Огромная просьба, поблагодарите релизера, оцените раздачу и оставьте свои комментарий, если Вы скачали Уличный боец 2 через торрент бесплатно! Внесите свою лепту в развитие PiratBit!
    Комментировать посты могут только пользователи прошедшие не сложную регистрацию
    Показать сообщения:    

    Уличный боец 2 через торрент
    Скачать бесплатно Уличный боец 2
    Уличный боец 2 скачать торрент
    Уличный боец 2 смотреть онлайн
    Cкачать фильм Уличный боец 2 бесплатно
    Уличный боец 2 скачать торрент в хорошем качестве
    Уличный боец 2 смотреть онлайн бесплатно в хорошем качестве


    Вы не можете начинать темы
    Вы не можете отвечать на сообщения
    Вы не можете редактировать свои сообщения
    Вы не можете удалять свои сообщения
    Вы не можете голосовать в опросах
    Вы не можете прикреплять файлы к сообщениям
    Вы можете скачивать файлы