2 сезон

iTunes

MVO

1

2 сезон

iTunes

iTunes

1 сезон

RePack

30

Новинка

ВАЖНО

ИГРА 18+

pack

RePack

MK11
pack

Легкие деньги

RePack

jed

RePack

fifa19

RePack

RDR2

RePack

NEED FOR SPEED™ PAYBACK

4 сезон

9 сезон

Бесстыжие 9 сезон

Все сериалы

все сериалы на PB.wtf

RePack

FAR CRY 5

Anonymous, доброй ночи, мы не успеваем собрать деньги на оплату серверов за декабрь и январь, помогите нам пожалуйста в это трудное время. В качестве благодарности мы отключим Вам всю рекламу на сайте (укажите свой ник в строку Ваше имя)!

×
  
Magnet ссылка

Конан-варвар / Conan the Barbarian (Джон Милиус / John Milius) [1982, фэнтези, боевик, приключения, BDRip 720p / 60 FPS] MVO [Blu-Ray CEE] pb.wtf

Конан-варвар через торрент pb.wtf

Раздают: 1 [ 0 KB/s ]
Размер: 4.35 GB | Добавлен: 8 мес. назад | Торрент скачан:39 раз
Скачать  

01-05-2020 09:52 Конан-варвар Скачать торрент  

Конан-варвар / Conan the Barbarian
Год выпуска: 1982
Страна: США
Жанр: фэнтези, боевик, приключения
Продолжительность: 02:10:32
Перевод: Профессиональный (многоголосый) | Blu-Ray CEE
Субтитры: русские, английские

Режиссер: Джон Милиус / John Milius

В ролях: Арнольд Шварценеггер (Conan), Джеймс Эрл Джонс (Thulsa Doom), Макс фон Сюдов (King Osric), Сэндал Бергман (Valeria), Бен Дэвидсон (Rexor), Кассандра Гава (The Witch), Джерри Лопес (Subotai), Мако (The Wizard / рассказчик), Валери Кеннессен (The Princess), Уильям Смит (Conan's Father), Луис Барбу (Red Hair), Франко Колумбу (Pictish Scout)

Описание: В детстве Конан стал свидетелем жестокого убийства своих родителей беспощадным Тулса Думом. Его обезумевшие от запаха крови солдаты разорили и сожгли до тла родную деревню Конана. Мальчик вырастает в рабстве и превращается в обладающего неимоверной силой и мышечной массой непобедимого воина.
Поклявшись отомстить за родителей, он отправляется на поиски своего врага. Его путь полон невероятных приключений, отчаянных поединков, неожиданных встреч и опасностей.
Конан с достоинством проходит все испытания, но сможет ли он победить в последней и самой опасной битве в его жизни, битве с непобедимым Тулса Думом?

Качество: BDRip 720p / 60 FPS
Формат: MKV
Видео кодек: H.264
Аудио кодек: AC3
Видео: x264, 1280 x 544 ( 2,35:1 ), 4000 kbps, 59,940 fps, ( 0.096 bpp)
Аудио#1: Русский, DTS, 48.0 KHz, 6 ch, 768 Kbps
скриншот   скриншот   скриншот  

Общее
Уникальный идентификатор : 225734855857048096971664133634016010566 (0xA9D2F3ABB38273ABB051C52F7735E146)
Полное имя : Z:\На заливку\Конан - Варвар.1982.BDRip.720p.(60Fps).mkv
Формат : Matroska
Версия формата : Version 4
Размер файла : 4,35 Гбайт
Продолжительность : 2 ч. 10 м.
Общий поток : 4 770 Кбит/сек
Дата кодирования : UTC 2020-05-01 07:40:03
Программа кодирования : mkvmerge v7.2.0 ('On Every Street') 64bit built on Sep 13 2014 15:52:10
Библиотека кодирования : libebml v1.3.0 + libmatroska v1.4.1

Видео
Идентификатор : 1
Формат : AVC
Формат/Информация : Advanced Video Codec
Профиль формата : High@L4.1
Настройки формата : CABAC / 8 Ref Frames
Параметр CABAC формата : Да
Параметр RefFrames формата : 8 кадров
Идентификатор кодека : V_MPEG4/ISO/AVC
Продолжительность : 2 ч. 10 м.
Битрейт : 4 000 Кбит/сек
Ширина : 1 280 пикселей
Высота : 544 пикселя
Соотношение сторон : 2,35:1
Режим частоты кадров : Постоянный
Частота кадров : 59,940 кадров/сек
Цветовое пространство : YUV
Субдискретизация насыщенности : 4:2:0
Битовая глубина : 8 бит
Тип развёртки : Прогрессивная
Бит/(Пиксели*Кадры) : 0.096
Размер потока : 3,64 Гбайт (84%)
Библиотека кодирования : x264 core 148 r2638 7599210
Настройки программы : cabac=1 / ref=8 / deblock=1:0:0 / analyse=0x3:0x113 / me=umh / subme=9 / psy=1 / psy_rd=1.00:0.10 / mixed_ref=1 / me_range=32 / chroma_me=1 / trellis=2 / 8x8dct=1 / cqm=0 / deadzone=21,11 / fast_pskip=0 / chroma_qp_offset=-3 / threads=6 / lookahead_threads=1 / sliced_threads=0 / nr=0 / decimate=1 / interlaced=0 / bluray_compat=0 / constrained_intra=0 / bframes=16 / b_pyramid=2 / b_adapt=2 / b_bias=0 / direct=3 / weightb=1 / open_gop=0 / weightp=2 / keyint=250 / keyint_min=25 / scenecut=40 / intra_refresh=0 / rc_lookahead=40 / rc=2pass / mbtree=1 / bitrate=4000 / ratetol=1.0 / qcomp=0.60 / qpmin=0 / qpmax=69 / qpstep=4 / cplxblur=20.0 / qblur=0.5 / vbv_maxrate=14000 / vbv_bufsize=14000 / nal_hrd=none / filler=0 / ip_ratio=1.40 / aq=1:1.00
Язык : English
Default : Да
Forced : Нет

Аудио
Идентификатор : 2
Формат : DTS
Формат/Информация : Digital Theater Systems
Идентификатор кодека : A_DTS
Продолжительность : 2 ч. 10 м.
Вид битрейта : Постоянный
Битрейт : 768 Кбит/сек
Каналы : 6 каналов
Channel layout : C L R Ls Rs LFE
Частота : 48,0 КГц
Частота кадров : 93,750 кадра/сек (512 SPF)
Битовая глубина : 24 бит
Метод сжатия : С потерями
Размер потока : 717 Мбайт (16%)
Заголовок : Многоголосый (Blu-Ray CEE) DTS 5.1 @ 768 kbps
Язык : Russian
Default : Да
Forced : Нет

Текст #1
Идентификатор : 3
Формат : UTF-8
Идентификатор кодека : S_TEXT/UTF8
Идентификатор кодека/Информация : UTF-8 Plain Text
Продолжительность : 2 ч. 6 м.
Битрейт : 23 бит/сек
Count of elements : 449
Размер потока : 21,5 Кбайт (0%)
Заголовок : Русские
Язык : Russian
Default : Нет
Forced : Нет

Текст #2
Идентификатор : 4
Формат : UTF-8
Идентификатор кодека : S_TEXT/UTF8
Идентификатор кодека/Информация : UTF-8 Plain Text
Продолжительность : 2 ч. 9 м.
Битрейт : 18 бит/сек
Count of elements : 627
Размер потока : 17,2 Кбайт (0%)
Заголовок : Английские (SDH)
Язык : English
Default : Нет
Forced : Нет

pb.wtf



Скачать Конан-варвар через торрент https://pic1.kartinco.top/images/12/eidne.jpg Скачать фильм Конан-варвар через торрент бесплантно в хорошем качестве Описание: В детстве Конан стал свидетелем жестокого убийства своих родителей беспощадным Тулса Думом. Его обезумевшие от запаха крови ... 10 10 1
Info! Золотая раздача, скачанное не засчитывается.
Торрент: Зарегистрирован [2020-05-01 09:52] · скачан: 39 раз
Статус: √ проверено
Размер: 4.35 GB
Как cкачать? Как скачать Конан-варвар через торрент | UTorrent

% Раздел Тема Автор DL S | L
Фильмы до 2000 г. [ 4 GB ] Конан-варвар / Conan the Barbarian [1982 BDRip] [Extended international cut] 2x[MVO] + 2x[DVO] + [AVO] killermax2013 Скачать
1 | 0
Фильмы [HD 720p, 1080p] (Хороший звук DUB, MVO) [ 4.6 GB ] Конан-варвар / Conan the Barbarian [2011 BDRip-HEVC 1080p ] DUB [] bober100 Скачать
2 | 0
Фильмы [HD 720p, 1080p] (Хороший звук DUB, MVO) [ 7.94 GB ] Конан-варвар / Conan the Barbarian [1982 BDRip-HEVC 1080p] AVO+2MVO bober100 Скачать
1 | 0
3D Фильмы [ 21.82 GB ] Конан-варвар в 3Д / Conan the Barbarian 3D [2011 BDRip 1080p] OverUnder / Вертикальная стереопара [ ] serega768 Скачать
1 | 0
Ultra HD (UHD: 2K, 4K, 8K) — видео сверхвысокой чёткости [ 45.77 GB ] Конан-варвар / Conan the Barbarian [2011 UHD BDRemux 2160p] DUB+2xAVO bober100 Скачать
1 | 0
Фильмы до 2000 г. [ 2.91 GB ] Конан-варвар / Conan the Barbarian [1982 BDRip-AVC] MVO potroks Скачать
1 | 0
Порно фильмы с русским переводом [ 695 MB ] Это не Конан-варвар ХХХ / This Ain't Conan the Barbarian XXX [2011 Feature Historical / Period Piece Spoofs & Parodies DVDRip Субтитры: Русские] Pir@tya2010 Скачать
1 | 0


Последний раз редактировалось: alien2015 (2020-05-06 12:37), всего редактировалось 4 раз(а)

28-11-2019 20:33  

Отключить всю рекламу на сайте

    Дорогой пользователь! Огромная просьба, поблагодарите релизера, оцените раздачу и оставьте свои комментарий, если Вы скачали Конан-варвар через торрент бесплатно! Внесите свою лепту в развитие PiratBit!
    Комментировать посты могут только пользователи прошедшие не сложную регистрацию
    Показать сообщения:    

    Конан-варвар через торрент
    Скачать бесплатно Конан-варвар
    Конан-варвар скачать торрент
    Конан-варвар смотреть онлайн
    Cкачать фильм Конан-варвар бесплатно
    Конан-варвар скачать торрент в хорошем качестве
    Конан-варвар смотреть онлайн бесплатно в хорошем качестве


    Вы не можете начинать темы
    Вы не можете отвечать на сообщения
    Вы не можете редактировать свои сообщения
    Вы не можете удалять свои сообщения
    Вы не можете голосовать в опросах
    Вы не можете прикреплять файлы к сообщениям
    Вы можете скачивать файлы