2 сезон

iTunes

MVO

1

2 сезон

iTunes

iTunes

1 сезон

RePack

30

Новинка

ВАЖНО

ИГРА 18+

pack

RePack

MK11
pack

Легкие деньги

RePack

jed

RePack

fifa19

RePack

RDR2

RePack

NEED FOR SPEED™ PAYBACK

4 сезон

9 сезон

Бесстыжие 9 сезон

Все сериалы

все сериалы на PB.wtf

RePack

FAR CRY 5

Anonymous, доброй ночи, мы не успеваем собрать деньги на оплату серверов за декабрь и январь, помогите нам пожалуйста в это трудное время. В качестве благодарности мы отключим Вам всю рекламу на сайте (укажите свой ник в строку Ваше имя)!

×
  
Magnet ссылка

В осаде / Under Siege (Эндрю Дэвис) [1992 г., Боевик, триллер, драма, BDRip 720p / 60 FPS, Дубляж] pb.wtf

В осаде через торрент pb.wtf

Размер: 3 GB | Добавлен: 8 мес. назад | Торрент скачан:40 раз
Скачать  

01-05-2020 11:23 В осаде Скачать торрент  

В осаде / Under Siege
Год выпуска: 1992
Страна: США, Франция, Alcor Films, Canal+ [fr]
Жанр: Боевик, триллер, драма
Продолжительность: 01:42:32
Перевод: Дубляж
Субтитры: русские, английские

Режиссер: Эндрю Дэвис

В ролях: Стивен Сигал, Томми Ли Джонс, Гэри Бьюзи, Эрика Элениак, Колм Мини, Патрик О`Нил, Энди Романо, Ник Манкузо, Дэмиан Чапа, Трой Эванс, Дэвид МакНайт, Ли Хинтон, Гленн Моршауэр, Лео Александр, Джон Роттгер, Брэд Ри, Майкл Уэлден, Берни Кейси, Рики Пьер, Рэймонд Крус, Дуан Дэвис, Эдди Бо Смит мл., Ричард Джонс, Том Рейнольдс, Том Мазила, Кирк Барроуз, Джордж Чунг, Джим Чименто, Крэйг Данн, Дэниэл Дюпон, Фрэнк Феррара, Адам Джеймс, Майкл Гэйлорд Джеймс, Мигель Нино, Дэвид Уэбстер, Джин Барж, Энтони Дж. Браун, Хирам Баллок, Кристофер Алан Камерон, Ричард Дэвис, Тад Робинсон, Вэндалл Вейн Стюарт

Описание: Террористы – бывшая элита коммандос – под видом сопровождения рок-группы, которая должна выступить перед военными моряками, пробираются на корабль с ядерным оружием. Расправившись с основной частью командного состава они пытаются шантажировать правительство США. Все для захватчиков судна складывалось благополучно до тех пор, пока они не решили изолировать повара – бывшего морского пехотинца. Кок не мог стерпеть такого издевательства: он практически в одиночку хоронит планы подонков один за другим.

Качество: BDRip 720p
Формат: MKV
Видео кодек: H.264
Аудио кодек: AC3
Видео: x264, 1280 x 720 ( 2,40:1 ), 4000 kbps, 59,940 fps, ( 0.072 bpp)
Аудио#1: Русский, AC-3, 48.0 KHz, 2 ch, 192 Kbps
Релиз от: rutor
скриншот   скриншот   скриншот  

Общее
Уникальный идентификатор : 216932888698955967620202802892847175536 (0xA333C12F38642C0E94256CAB9323D770)
Полное имя : Z:\На заливку\В Осаде 1992 BDRip.720p.(60Fps).mkv
Формат : Matroska
Версия формата : Version 2
Размер файла : 3,00 Гбайт
Продолжительность : 1 ч. 42 м.
Общий поток : 4 190 Кбит/сек
Дата кодирования : UTC 2020-04-21 08:00:17
Программа кодирования : mkvmerge v4.1.1 ('Bouncin' Back') сборка от Jul 3 2010 22:54:08
Библиотека кодирования : libebml v1.0.0 + libmatroska v1.0.0

Видео
Идентификатор : 1
Формат : AVC
Формат/Информация : Advanced Video Codec
Профиль формата : High@L4.1
Настройки формата : CABAC / 4 Ref Frames
Параметр CABAC формата : Да
Параметр RefFrames формата : 4 кадра
Идентификатор кодека : V_MPEG4/ISO/AVC
Продолжительность : 1 ч. 42 м.
Битрейт : 4 000 Кбит/сек
Ширина : 1 280 пикселей
Высота : 720 пикселей
Соотношение сторон : 16:9
Режим частоты кадров : Постоянный
Частота кадров : 59,940 кадров/сек
Цветовое пространство : YUV
Субдискретизация насыщенности : 4:2:0
Битовая глубина : 8 бит
Тип развёртки : Прогрессивная
Бит/(Пиксели*Кадры) : 0.072
Размер потока : 2,80 Гбайт (93%)
Библиотека кодирования : x264 core 148 r2638 7599210
Настройки программы : cabac=1 / ref=3 / deblock=1:0:0 / analyse=0x3:0x113 / me=umh / subme=9 / psy=1 / psy_rd=1.00:0.10 / mixed_ref=1 / me_range=32 / chroma_me=1 / trellis=2 / 8x8dct=1 / cqm=0 / deadzone=21,11 / fast_pskip=0 / chroma_qp_offset=-3 / threads=6 / lookahead_threads=1 / sliced_threads=0 / nr=0 / decimate=1 / interlaced=0 / bluray_compat=0 / constrained_intra=0 / bframes=16 / b_pyramid=2 / b_adapt=2 / b_bias=0 / direct=3 / weightb=1 / open_gop=0 / weightp=2 / keyint=250 / keyint_min=25 / scenecut=40 / intra_refresh=0 / rc_lookahead=40 / rc=2pass / mbtree=1 / bitrate=4000 / ratetol=1.0 / qcomp=0.60 / qpmin=0 / qpmax=69 / qpstep=4 / cplxblur=20.0 / qblur=0.5 / vbv_maxrate=14000 / vbv_bufsize=14000 / nal_hrd=none / filler=0 / ip_ratio=1.40 / aq=1:1.00
Язык : English
Default : Да
Forced : Нет
Duration_Source : General_Duration

Аудио
Идентификатор : 2
Формат : AC-3
Формат/Информация : Audio Coding 3
Коммерческое название : Dolby Digital
Режим смешивания : Header stripping
Идентификатор кодека : A_AC3
Продолжительность : 1 ч. 42 м.
Вид битрейта : Постоянный
Битрейт : 192 Кбит/сек
Каналы : 2 канала
Channel layout : L R
Частота : 48,0 КГц
Частота кадров : 31,250 кадров/сек (1536 SPF)
Метод сжатия : С потерями
Размер потока : 141 Мбайт (5%)
Заголовок : Дубляж
Язык : Russian
Service kind : Complete Main
Default : Да
Forced : Нет
Duration_Source : General_Duration

Текст #1
Идентификатор : 3
Формат : UTF-8
Идентификатор кодека : S_TEXT/UTF8
Идентификатор кодека/Информация : UTF-8 Plain Text
Заголовок : Sub
Язык : Russian
Default : Да
Forced : Нет

Текст #2
Идентификатор : 4
Формат : UTF-8
Идентификатор кодека : S_TEXT/UTF8
Идентификатор кодека/Информация : UTF-8 Plain Text
Заголовок : Sub
Язык : English
Default : Нет
Forced : Нет

Меню
00:00:00.000 : en:00:00:00.000
00:05:53.395 : en:00:05:53.395
00:10:23.373 : en:00:10:23.373
00:13:01.906 : en:00:13:01.906
00:17:19.330 : en:00:17:19.330
00:20:02.201 : en:00:20:02.201
00:24:16.330 : en:00:24:16.330
00:25:13.762 : en:00:25:13.762
00:29:40.612 : en:00:29:40.612
00:33:30.258 : en:00:33:30.258
00:36:18.385 : en:00:36:18.385
00:42:25.501 : en:00:42:25.501
00:45:13.544 : en:00:45:13.544
00:48:57.643 : en:00:48:57.643
00:50:22.603 : en:00:50:22.603
00:52:34.985 : en:00:52:34.985
00:58:11.446 : en:00:58:11.446
01:02:13.939 : en:01:02:13.939
01:06:43.416 : en:01:06:43.416
01:12:01.901 : en:01:12:01.901
01:15:01.414 : en:01:15:01.414
01:19:58.669 : en:01:19:58.669
01:26:43.990 : en:01:26:43.990
01:29:05.840 : en:01:29:05.840
01:31:25.563 : en:01:31:25.563
01:34:41.926 : en:01:34:41.926
01:35:17.337 : en:01:35:17.337
01:37:22.128 : en:01:37:22.128
01:38:57.765 : en:01:38:57.765

pb.wtf



Скачать В осаде через торрент http://pic1.kartinco.top/images/12/adpip.jpg Скачать фильм В осаде через торрент бесплантно в хорошем качестве Описание: Террористы – бывшая элита коммандос – под видом сопровождения рок-группы, которая должна выступить перед военными моряками, ... 10 10 4
Торрент: Зарегистрирован [2020-05-01 11:23] · скачан: 40 раз
Статус: √ проверено
Размер: 3 GB
Как cкачать? Как скачать В осаде через торрент | UTorrent

% Раздел Тема Автор DL S | L
Фильмы (HD 720p, 1080p) (48-60 fps) [ 3.35 GB ] В осаде 2: Темная территория / Under Siege 2: Dark Territory [1995 BDRip 720p / 60 FPS ] от R.G. HD-Films slaventi-69 Скачать
1 | 0
Фильмы (HD 720p, 1080p) (48-60 fps) [ 4.76 GB ] В осаде / Under Siege [1992 BDRip 720p / 60 FPS ] от R.G. HD-Films slaventi-69 Скачать
2 | 0
Фильмы [HD 720p, 1080p] (Хороший звук DUB, MVO) [ 6.2 GB ] В осаде / Under Siege [1992 BDRip 1080p HEVC +MVO+2хAVO] Мичман37 Скачать
1 | 0
Фильмы 2017 [DVDrip, WEB-DLRip, HDrip] (DUB, MVO) [ 1.46 GB ] S.W.A.T.: Спецназ. В осаде / S.W.A.T.: Under Siege [2017 BDRip-AVC] MVO [] bober100 Скачать
1 | 0
Фильмы без перевода [ 17.04 GB ] Спецназ: В осаде / S.W.A.T.: Under Siege [2017 BD Remux] [Оригинал-ENG] smaster Скачать
1 | 0
Фильмы 2017 [DVDrip, WEB-DLRip, HDrip] (DUB, MVO) [ 1.43 GB ] Спецназ: В осаде / S.W.A.T.: Under Siege [2017 HDRip многоголосый закадровый "BD CEE"] coc900 Скачать
1 | 0
R.G. Resident & PiratVoice - Фильмы, Видео [ 1.93 GB ] Спецназ: В осаде / S.W.A.T.: Under Siege [2017 BDRip-AVC от R.G. Resident] MVO [ Blu-ray СЕЕ] -Lexx- Скачать
1 | 0

28-11-2019 20:33  

Отключить всю рекламу на сайте

01-05-2020 11:29 В осаде Скачать торрент  

Если не затруднит Log кодирования и сэмпл можно глянуть?pb.wtf



01-05-2020 11:32 В осаде Скачать торрент  

фильм супер
давайте 2 часть в 60 фпсpb.wtf



01-05-2020 11:43 В осаде Скачать торрент  

Бумер писал(а):

фильм супер
давайте 2 часть в 60 фпс

Эти фильмы есть на сайте.pb.wtf



02-05-2020 06:44 В осаде Скачать торрент  

клёвый фильмpb.wtf



    Дорогой пользователь! Огромная просьба, поблагодарите релизера, оцените раздачу и оставьте свои комментарий, если Вы скачали В осаде через торрент бесплатно! Внесите свою лепту в развитие PiratBit!
    Комментировать посты могут только пользователи прошедшие не сложную регистрацию
    Показать сообщения:    

    В осаде через торрент
    Скачать бесплатно В осаде
    В осаде скачать торрент
    В осаде смотреть онлайн
    Cкачать фильм В осаде бесплатно
    В осаде скачать торрент в хорошем качестве
    В осаде смотреть онлайн бесплатно в хорошем качестве


    Вы не можете начинать темы
    Вы не можете отвечать на сообщения
    Вы не можете редактировать свои сообщения
    Вы не можете удалять свои сообщения
    Вы не можете голосовать в опросах
    Вы не можете прикреплять файлы к сообщениям
    Вы можете скачивать файлы