Всегда рабочее зеркало просто перед .vidak.icu напиши любое слово или цифру, Пример http://2fi.vidak.icu

>

7.4

iTunes

7.4

2 сезон

9.4

1 сезон

1

7.4

2 сезон

7.2

iTunes

6.0

MVO

13

6.1

iTunes

8.3

Пиратка

30

ULTIMATE

pack

9.9

Лицензия

ВАЖНО

ИГРА 18+

pack

7.3

RePack

MK11

7.7

RePack

jed

7.8

RePack

fifa19

8.5

RePack

RDR2

RePack

NEED FOR SPEED™ PAYBACK

1 сезон

9 сезон

Бесстыжие 9 сезон

Все сериалы

все сериалы на PB.wtf

RePack

FAR CRY 5

Anonymous, доброе утро, мы катастрофически не успеваем собрать деньги на оплату серверов, помогите нам пожалуйста 5,10,15р., для нас важна любая помощь . В качестве благодарности мы отключим Вам всю рекламу на сайте (укажите свой ник в строку Ваше имя)!

×
  
Magnet ссылка

Назад в будущее / Back to the Future (Роберт Земекис) [1985 г., фантастика, приключения, BDRip] 5xAVO (Гаврилов, Горчаков, Михалёв, Сербин, Дубровин) pb.wtf

Назад в будущее через торрент pb.wtf

Размер: 3.42 GB | Добавлен: 1 год 8 мес. назад | Торрент скачан:21 раз
Смотреть онлайн Назад в будущее | Скачать    Ребята, помогите собрать деньги на оплату серверов!!!

01-05-2020 12:40 Назад в будущее Скачать торрент  

Назад в будущее / Back to the Future
Год выпуска: 1985

Страна: США

Жанр: Фантастика, приключения

Продолжительность: 01:56:00

Перевод: Авторский (одноголосый)

Режиссер: Роберт Земекис

rating

В ролях: Майкл Дж. Фокс, Кристофер Ллойд, Лиа Томпсон, Криспин Гловер, Томас Ф. Уилсон, Клаудия Уэллс, Марк МакКлюр, Уэнди Джо Спербер, Джордж ДиЧенцо, Фрэнсис Ли МакКейн, Джеймс Толкан, Гарри Уотерс мл

Описание: Подросток Марти с помощью машины времени, сооружённой его другом профессором доком Брауном, попадает из 80-х в далекие 50-е. Там он встречается со своими будущими родителями, ещё подростками, и другом-профессором, совсем молодым. Он нарушает естественный ход событий прошлого, чем вызывает массу смешных и драматических ситуаций. Собственная смекалка и фантазия профессора помогают преодолеть все препятствия и благополучно вернуться к себе, в свое время...
Качество: BDRip
Формат: AVI
Видео: XviD, 1908 Кбит/с, 704x384
Аудио#1: Русский, AC3, 6 ch, 448 Кбит/сек - [Андрей Гаврилов (поздний)]
Аудио#2: Русский, AC3, 6 ch, 448 Кбит/сек - [Василий Горчаков]
Аудио#3: Русский, AC3, 6 ch, 448 Кбит/сек - [Алексей Михалёв]
Аудио#4: Русский, MP3, 2 ch, 32 Кбит/с - [Юрий Сербин]
Аудио#5: Русский, AC3, 6 ch, 448 Кбит/сек - [Владимир Дубровин]
Аудио#6: Русский, AC3, 6 ch, 448 Кбит/сек - [Андрей Гаврилов (ранний)]
Видео
Идентификатор : 0
Формат : MPEG-4 Visual
Профиль формата : Advanced Simple@L5
Настройки формата : BVOP1 / Custom Matrix
Параметр BVOP формата : 1
Параметр QPel формата : Нет
Параметр GMC формата : Без точки перехода
Параметр матрицы формата : Выборочная
Идентификатор кодека : XVID
Идентификатор кодека/Подсказка : XviD
Продолжительность : 1 ч. 56 м.
Битрейт : 1908 Кбит/сек
Ширина : 704 пикселя
Высота : 384 пикселя
Соотношение сторон : 1,85:1
Частота кадров : 23,976 (24000/1001) кадра/сек
Цветовое пространство : YUV
Субдискретизация насыщенности : 4:2:0
Битовая глубина : 8 бит
Тип развёртки : Прогрессивная
Метод сжатия : С потерями
Бит/(Пиксели*Кадры) : 0.294
Размер потока : 1,55 Гбайт (45%)
Библиотека кодирования : XviD 72

Аудио #1
Идентификатор : 1
Формат : AC-3
Формат/Информация : Audio Coding 3
Коммерческое название : Dolby Digital
Идентификатор кодека : 2000
Продолжительность : 1 ч. 56 м.
Вид битрейта : Постоянный
Битрейт : 448 Кбит/сек
Каналы : 6 каналов
ChannelLayout : L R C LFE Ls Rs
Частота : 48,0 КГц
Частота кадров : 31,250 кадров/сек (1536 SPF)
Битовая глубина : 16 бит
Метод сжатия : С потерями
Размер потока : 372 Мбайт (11%)
Выравнивание : Разделение по промежуткам
Продолжительность промежутка : 42 мс. (1,00 видеокадр)
Время предзагрузки промежутка : 500 мс.
ServiceKind/String : Complete Main

Аудио #2
Идентификатор : 2
Формат : AC-3
Формат/Информация : Audio Coding 3
Коммерческое название : Dolby Digital
Идентификатор кодека : 2000
Продолжительность : 1 ч. 56 м.
Вид битрейта : Постоянный
Битрейт : 448 Кбит/сек
Каналы : 6 каналов
ChannelLayout : L R C LFE Ls Rs
Частота : 48,0 КГц
Частота кадров : 31,250 кадров/сек (1536 SPF)
Битовая глубина : 16 бит
Метод сжатия : С потерями
Размер потока : 372 Мбайт (11%)
Выравнивание : Разделение по промежуткам
Продолжительность промежутка : 42 мс. (1,00 видеокадр)
Время предзагрузки промежутка : 500 мс.
ServiceKind/String : Complete Main

Аудио #3
Идентификатор : 3
Формат : AC-3
Формат/Информация : Audio Coding 3
Коммерческое название : Dolby Digital
Идентификатор кодека : 2000
Продолжительность : 1 ч. 56 м.
Вид битрейта : Постоянный
Битрейт : 448 Кбит/сек
Каналы : 6 каналов
ChannelLayout : L R C LFE Ls Rs
Частота : 48,0 КГц
Частота кадров : 31,250 кадров/сек (1536 SPF)
Битовая глубина : 16 бит
Метод сжатия : С потерями
Размер потока : 372 Мбайт (11%)
Выравнивание : Разделение по промежуткам
Продолжительность промежутка : 42 мс. (1,00 видеокадр)
Время предзагрузки промежутка : 500 мс.
ServiceKind/String : Complete Main

Аудио #4
Идентификатор : 4
Формат : MPEG Audio
Версия формата : Version 1
Профиль формата : Layer 3
Настройки формата : Joint stereo / MS Stereo
Идентификатор кодека : 55
Идентификатор кодека/Подсказка : MP3
Продолжительность : 1 ч. 56 м.
Вид битрейта : Переменный
Битрейт : 32,0 Кбит/сек
Каналы : 2 канала
Частота : 48,0 КГц
Частота кадров : 41,667 кадра/сек (1152 SPF)
Метод сжатия : С потерями
Размер потока : 26,6 Мбайт (1%)
Выравнивание : Разделение по промежуткам
Продолжительность промежутка : 42 мс. (1,00 видеокадр)
Время предзагрузки промежутка : 500 мс.

Аудио #5
Идентификатор : 5
Формат : AC-3
Формат/Информация : Audio Coding 3
Коммерческое название : Dolby Digital
Идентификатор кодека : 2000
Продолжительность : 1 ч. 56 м.
Вид битрейта : Постоянный
Битрейт : 448 Кбит/сек
Каналы : 6 каналов
ChannelLayout : L R C LFE Ls Rs
Частота : 48,0 КГц
Частота кадров : 31,250 кадров/сек (1536 SPF)
Битовая глубина : 16 бит
Метод сжатия : С потерями
Размер потока : 372 Мбайт (11%)
Выравнивание : Разделение по промежуткам
Продолжительность промежутка : 42 мс. (1,00 видеокадр)
Время предзагрузки промежутка : 500 мс.
ServiceKind/String : Complete Main

Аудио #6
Идентификатор : 6
Формат : AC-3
Формат/Информация : Audio Coding 3
Коммерческое название : Dolby Digital
Идентификатор кодека : 2000
Продолжительность : 1 ч. 56 м.
Вид битрейта : Постоянный
Битрейт : 448 Кбит/сек
Каналы : 6 каналов
ChannelLayout : L R C LFE Ls Rs
Частота : 48,0 КГц
Частота кадров : 31,250 кадров/сек (1536 SPF)
Битовая глубина : 16 бит
Метод сжатия : С потерями
Размер потока : 372 Мбайт (11%)
Выравнивание : Разделение по промежуткам
Продолжительность промежутка : 42 мс. (1,00 видеокадр)
Время предзагрузки промежутка : 500 мс.
ServiceKind/String : Complete Main

скриншот   скриншот   скриншот   скриншот   скриншот  

pb.wtf



Скачать Назад в будущее через торрент https://pic1.kartinco.top/images/12/veti2.jpg Скачать, смотреть онлайн Назад в будущее бесплантно в хорошем качестве Описание: Подросток Марти с помощью машины времени, сооружённой его другом профессором доком Брауном, попадает из 80-х в далекие 50-е. Там ... 10 10 4
Торрент: Зарегистрирован [2020-05-01 12:40] · скачан: 21 раз
Статус: √ проверено
Размер: 3.42 GB
Как cкачать? Как скачать Назад в будущее через торрент | UTorrent

% Раздел Тема Автор DL S | L
Сборники и Сиквелы (48-60 fps) [ 13.26 GB ] Назад в будущее: Трилогия / Back to the Future Trilogy [1985 - 1990 BDRip - HEVC 1080p 10 bit 60 FPS ] dd2d3 Скачать
3 | 1
Discovery [ 5.09 GB ] Экспедиция: Назад в будущее / Expedition: Back to the Future / Сезон: 1 / Серии 1-4 из 4 [2021 Документальный WEBRip 1080p] [MVO] killermax2013 Скачать
2 | 0
Сборники (HD Video) [ 51.5 GB ] Назад в будущее: Трилогия / Back to the Future: Trilogy [1985-1990 BDRip-HEVC 1080p] DUB + MVO + DVO + AVO + VO | Remastered RealOldGamer Скачать
1 | 1
Фильмы с авторской озвучкой [ 1.45 GB ] Назад в будущее / Back to the Future [1985 BDRip] [AVO] killermax2013 Скачать
1 | 0
Ultra HD (UHD: 2K, 4K, 8K) — видео сверхвысокой чёткости [ 124.66 GB ] Назад в будущее / Back to the Future [1985 UHD BDRemux 2160p] DUB [] +4xMVO+3xDVO+8xAVO bober100 Скачать
1 | 0
Ultra HD (UHD: 2K, 4K, 8K) — видео сверхвысокой чёткости [ 128.96 GB ] Назад в Будущее 2 / Back to the Future 2 [1989 UHD BDRemux 2160p] DUB [] +10xAVO+4xMVO+3xDVO bober100 Скачать
1 | 0
Сборники и Сиквелы (48-60 fps) [ 13.66 GB ] Назад в будущее: Трилогия / Back to the Future Trilogy [1985 1989 1990 BDRip 720p / 60fps ] от R.G. HD-Films slaventi-69 Скачать
2 | 0

28-11-2019 20:33  

Отключить всю рекламу на сайте

01-05-2020 14:40 Назад в будущее Скачать торрент  

Вот такие фильмы пересматривать никогда не надоедает .pb.wtf



01-05-2020 14:41 Назад в будущее Скачать торрент  

И всегда у меня вопрос был,что значит назад в будущее,можно сказать назад в прошлое,а тут как то непонятно с названием))pb.wtf



01-05-2020 16:32 Назад в будущее Скачать торрент  

Александр1300 писал(а):

И всегда у меня вопрос был,что значит назад в будущее,можно сказать назад в прошлое,а тут как то непонятно с названием))

Ну дык по сюжету Марти же возвращается назад домой из прошлого в будущее

Ильич благодарю, особенно за авторский переводpb.wtf



    Дорогой пользователь! Огромная просьба, поблагодарите релизера, оцените раздачу и оставьте свои комментарий, если Вы скачали Назад в будущее через торрент бесплатно!
    Комментировать посты могут только пользователи прошедшие не сложную регистрацию
    Показать сообщения:    

    Назад в будущее через торрент
    Скачать бесплатно Назад в будущее
    Назад в будущее скачать торрент
    Назад в будущее смотреть онлайн
    Cкачать фильм Назад в будущее бесплатно
    Назад в будущее скачать торрент в хорошем качестве
    Назад в будущее смотреть онлайн бесплатно в хорошем качестве


    Вы не можете начинать темы
    Вы не можете отвечать на сообщения
    Вы не можете редактировать свои сообщения
    Вы не можете удалять свои сообщения
    Вы не можете голосовать в опросах
    Вы не можете прикреплять файлы к сообщениям
    Вы можете скачивать файлы