Anonymous, добрый день, присоединяйтесь к нам в Telegram!, здесь всегда актуальный адрес сайта, оперативная поддержка и многое другое!

>

5.5

iTunes

7.4

iTunes

7.9

iTunes

1

7.7

1 сезон

6.8

iTunes

7.3

1 сезон

13

6.7

1 сезон

8.3

RePack

30

ULTIMATE

pack

9.9

Лицензия

ВАЖНО

ИГРА 18+

pack

7.3

RePack

MK11

7.7

RePack

jed

7.8

RePack

fifa19

8.5

RePack

RDR2

RePack

NEED FOR SPEED™ PAYBACK

4 сезон

9 сезон

Бесстыжие 9 сезон

Все сериалы

все сериалы на PB.wtf

RePack

FAR CRY 5

Anonymous, добрый день, мы катастрофически не успеваем собрать деньги на оплату серверов, помогите нам пожалуйста 5,10,15р., для нас важна любая помощь . В качестве благодарности мы отключим Вам всю рекламу на сайте (укажите свой ник в строку Ваше имя)!

×
  
Magnet ссылка

Жуки / Сезон 1 / 1 - 16 (16) (Константин Смирнов) [2019, комедия, WEB-DLRip - HEVC 1080p 10 bit 60 FPS] pb.wtf

Жуки через торрент pb.wtf

Размер: 11.16 GB | Добавлен: 1 год 5 мес. назад | Торрент скачан:17 раз
Смотреть онлайн Жуки | Скачать    Ребята, помогите собрать деньги на оплату серверов!!!

01-05-2020 13:37 Жуки Скачать торрент  

Жуки

Год выпуска: 2019
Страна: Россия
Жанр: комедия

Продолжительность: 00:24:18 (Серия)
Перевод: Не требуется
Субтитры: Отсутствуют
Режиссер: Константин Смирнов
В ролях:

Вячеслав Чепурченко (Никита Давыдов), Павел Комаров (Денис Попов), Вадим Дубровин (Артемий Шнайдер), Максим Лагашкин (Маслов, участковый), Александр Робак (вахтовик), Владимир Епифанцев (Толик), Светлана Листова, Анастасия Акатова (Аня, девушка Никиты), Виктор Бычков (отец Александр), Екатерина Стулова (Ирина, продавщица сельпо), Игорь Верник (инвестор), Анатолий Журавлев (ветеринар)
Описание:
Никита, Дэн и Артемий разработали уникальное приложение для смартфонов, вот-вот продадут его и осуществят все свои мечты. Но в последний момент многомиллионная сделка срывается и парней забирают в армию. Чтобы не ставить под угрозу успех своего стартапа, они выбирают альтернативную службу в глухой деревне Жуки, где будут пытаться довести свой проект до конца. Только не так просто разрабатывать приложение там, где нет даже интернета…

Качество: WEB-DLRip - 1080p Rip by DD2D3
Формат: MKV
Видео: V_MPEGH/ISO/HEVC, 1920x1080 (16:9), 4005 kbps, 60 fps, 0,032 bpp
Аудио: русский / MPEG-1 Audio layer 2 / 2.0 / 48 kHz / 192 kbps / ||


General
Unique ID : 219038761544672028016011623797372382601 (0xA4C954BB5EB25ED79A29FD5EE9126D89)
Complete name : D:\Жуки (сериал 2019 ...) WEB-DLRip - HEVC 1080p 10 bit 60 FPS\Сезон 1\Серия 1-16 из 16.mkv
Format : Matroska
Format version : Version 4
File size : 733 MiB
Duration : 24 min 18 s
Overall bit rate : 4 214 kb/s
Movie name : Rip by from DD2D3
Encoded date : UTC 2020-04-28 15:59:54
Writing application : mkvmerge v10.0.0 ('To Drown In You') 32bit
Writing library : libebml v1.3.4 + libmatroska v1.4.5
Attachments : poster

Video
ID : 1
Format : HEVC
Format/Info : High Efficiency Video Coding
Format profile : Main 10@L4.1@Main
Codec ID : V_MPEGH/ISO/HEVC
Duration : 24 min 18 s
Bit rate : 4 006 kb/s
Width : 1 920 pixels
Height : 1 080 pixels
Display aspect ratio : 16:9
Frame rate mode : Constant
Frame rate : 60.000 FPS
Color space : YUV
Chroma subsampling : 4:2:0
Bit depth : 10 bits
Bits/(Pixel*Frame) : 0.032
Stream size : 697 MiB (95%)
Writing library : x265 2.3+33-0b7d54dbb71a87a0:[Windows][MSVC 1800][64 bit] 10bit: KG7x [x265.ru]
Encoding settings : cpuid=1173503 / frame-threads=2 / numa-pools=4 / wpp / no-pmode / no-pme / no-psnr / no-ssim / log-level=2 / input-csp=1 / input-res=1920x1080 / interlace=0 / total-frames=87533 / level-idc=41 / high-tier=1 / uhd-bd=0 / ref=3 / no-allow-non-conformance / no-repeat-headers / annexb / no-aud / no-hrd / info / hash=0 / no-temporal-layers / open-gop / min-keyint=25 / keyint=250 / bframes=4 / b-adapt=2 / b-pyramid / bframe-bias=0 / rc-lookahead=20 / lookahead-slices=6 / scenecut=40 / no-intra-refresh / ctu=64 / min-cu-size=8 / no-rect / no-amp / max-tu-size=32 / tu-inter-depth=1 / tu-intra-depth=1 / limit-tu=0 / rdoq-level=0 / dynamic-rd=0.00 / no-ssim-rd / signhide / no-tskip / nr-intra=0 / nr-inter=0 / no-constrained-intra / strong-intra-smoothing / max-merge=2 / limit-refs=3 / no-limit-modes / me=1 / subme=2 / merange=57 / temporal-mvp / weightp / no-weightb / no-analyze-src-pics / deblock=0:0 / no-sao / no-sao-non-deblock / rd=3 / no-early-skip / no-rskip / no-fast-intra / no-tskip-fast / no-cu-lossless / no-b-intra / rdpenalty=0 / psy-rd=4.00 / psy-rdoq=0.00 / no-rd-refine / analysis-mode=0 / no-lossless / cbqpoffs=0 / crqpoffs=0 / rc=abr / bitrate=4000 / qcomp=0.60 / qpstep=1 / stats-write=0 / stats-read=2 / cplxblur=20.0 / qblur=0.5 / ipratio=1.10 / pbratio=1.00 / aq-mode=0 / aq-strength=0.00 / no-cutree / zone-count=0 / no-strict-cbr / qg-size=64 / rc-grain / qpmax=69 / qpmin=0 / sar=1 / overscan=0 / videoformat=5 / range=0 / colorprim=2 / transfer=2 / colormatrix=2 / chromaloc=0 / display-window=0 / max-cll=0,0 / min-luma=0 / max-luma=1023 / log2-max-poc-lsb=8 / vui-timing-info / vui-hrd-info / slices=1 / opt-qp-pps / opt-ref-list-length-pps / no-multi-pass-opt-rps / scenecut-bias=0.05 / no-opt-cu-delta-qp / no-aq-motion / no-hdr / no-hdr-opt / refine-level=5 / no-limit-sao
Default : Yes
Forced : No

Audio
ID : 2
Format : MPEG Audio
Format version : Version 1
Format profile : Layer 2
Codec ID : A_MPEG/L2
Codec ID/Hint : MP2
Duration : 24 min 18 s
Bit rate mode : Constant
Bit rate : 192 kb/s
Channel(s) : 2 channels
Sampling rate : 48.0 kHz
Frame rate : 41.667 FPS (1152 SPF)
Compression mode : Lossy
Stream size : 33.4 MiB (5%)
Language : Russian
Default : Yes
Forced : No
скриншот  скриншот  скриншот  скриншот  скриншот   скриншот  скриншот  

© Оформление by DD2D3 pb.wtf



Скачать Жуки через торрент https://funkyimg.com/i/34vYD.jpg Скачать, смотреть онлайн Жуки бесплантно в хорошем качестве Описание: Никита, Дэн и Артемий разработали уникальное приложение для смартфонов, вот-вот продадут его и осуществят все свои мечты. Но в ... 10 10 4
Торрент: Зарегистрирован [2020-05-02 12:25] · скачан: 17 раз
Статус: √ проверено
Размер: 11.16 GB
Как cкачать? Как скачать Жуки через торрент | UTorrent

% Раздел Тема Автор DL S | L
TNT serials [ 8.77 GB ] Жуки / Сезон: 2 / Серии: 1-16 из 16 + Фильм о фильме [2021 WEBRip 720p] GEKADOL Скачать
6 | 3
TNT serials [ 4.95 GB ] Жуки / Сезон: 2 / Серии: 1-16 из 16 + Фильм о фильме [2021 WEBRip ] bober100 Скачать
7 | 0
TNT serials [ 13.82 GB ] Жуки / Сезон: 2 / Серии: 1-16 из 16 [2021 HDTV 1080i] bober100 Скачать
4 | 1
TNT serials [ 5.44 GB ] Жуки / Сезон: 2 / Серии: 1-16 из 16 + Фильм о фильме [2021 SATRip] bober100 Скачать
1 | 0
TNT serials [ 12.48 GB ] Жуки / Сезон: 1 / Серии: 1-16 из 16 + Фильм о сериале [2019 WEB-DL 1080p] bober100 Скачать
2 | 0
TNT serials [ 4.83 GB ] Жуки / Сезон: 1 / Серии: 1-16 из 16 + Фильм о сериале [2019 WEBRip-AVC] bober100 Скачать
6 | 1
TNT serials [ 15.78 GB ] Жуки / Сезон: 1 / Серии: 1-16 из 16 + Фильм о сериале [2019 HDTV 1080i] bober100 Скачать
2 | 0


Последний раз редактировалось: dd2d3 (2020-05-01 14:17), всего редактировалось 2 раз(а)

28-11-2019 20:33  

Отключить всю рекламу на сайте

    Дорогой пользователь! Огромная просьба, поблагодарите релизера, оцените раздачу и оставьте свои комментарий, если Вы скачали Жуки через торрент бесплатно!
    Комментировать посты могут только пользователи прошедшие не сложную регистрацию
    Показать сообщения:    

    Жуки через торрент
    Скачать бесплатно Жуки
    Жуки скачать торрент
    Жуки смотреть онлайн
    Cкачать фильм Жуки бесплатно
    Жуки скачать торрент в хорошем качестве
    Жуки смотреть онлайн бесплатно в хорошем качестве


    Вы не можете начинать темы
    Вы не можете отвечать на сообщения
    Вы не можете редактировать свои сообщения
    Вы не можете удалять свои сообщения
    Вы не можете голосовать в опросах
    Вы не можете прикреплять файлы к сообщениям
    Вы можете скачивать файлы