2 сезон

iTunes

MVO

1

2 сезон

iTunes

iTunes

1 сезон

RePack

30

Новинка

ВАЖНО

ИГРА 18+

pack

RePack

MK11
pack

Легкие деньги

RePack

jed

RePack

fifa19

RePack

RDR2

RePack

NEED FOR SPEED™ PAYBACK

4 сезон

9 сезон

Бесстыжие 9 сезон

Все сериалы

все сериалы на PB.wtf

RePack

FAR CRY 5

Anonymous, доброе утро, мы не успеваем собрать деньги на оплату серверов за декабрь и январь, помогите нам пожалуйста в это трудное время. В качестве благодарности мы отключим Вам всю рекламу на сайте (укажите свой ник в строку Ваше имя)!

×
  
Magnet ссылка

Секс и ничего личного / Секс і нічого особистого (Ольга Ряшина) [2018, Комедия, мелодрама, WEB-DLRip-AVC] DUB (rus) +Ukr - ExKinoRay pb.wtf

Секс и ничего личного через торрент pb.wtf

Раздают: 2 [ 0 KB/s ]
Размер: 2.02 GB | Добавлен: 8 мес. назад | Торрент скачан:218 раз
Скачать  

01-05-2020 14:06 Секс и ничего личного Скачать торрент  

Секс и ничего личного / Секс і нічого особистого
Год выпуска: 2018
Страна: Украина / Star Media
Жанр: Комедия, мелодрама
Продолжительность: 01:37:50
Перевод: Дублированный
Субтитры: Нет

Режиссер: Ольга Ряшина

rating

В ролях: Роман Луцкий, Анжелика Николаева, Наталья Мазур, Сергей Притула, Андрей Данилко, Инна Белоконь, Инна Островская, Анна Матийченко

Описание: Когда любимая девушка «выносит тебе гарбуз», мотивируя это тем, что ты полный бездарь в постели — значит, счастливой жизни пришел конец — по крайней, мере половой. Но Сергей встречает стриптизершу Диану, которая берется сделать из него настоящего мачо. Правда, ее уроки носить только теоретический характер, но скучными и бесполезными они точно не будут!

Качество: WEB-DLRip-AVC
Формат: MKV
Видео кодек: H.264
Аудио кодек: AC3
Видео: MPEG-4 AVC, 2569 Кбит/с, 1024x424
Аудио#1: Русский (AC3, 2 ch, 192 Кбит/с) Dub
Аудио#2: Украинский (AC3, 2 ch, 192 Кбит/с) Original

Релиз от:
Общее
Уникальный идентификатор : 247570116106635502548592000946896199429 (0xBA40451E5C5EF01CA67B75CDCD415F05)
Полное имя : D:\Раздача\Seks.I.Nichego.Lichnogo.2018.WEB-DLRip-AVC.ExKinoRay.mkv
Формат : Matroska
Версия формата : Version 4 / Version 2
Размер файла : 2,02 Гбайт
Продолжительность : 1 ч. 37 м.
Общий поток : 2954 Кбит/сек
Название фильма : Секс і нічого особистого.2018.WEB-DLRip-AVC.grab777 & ExKinoRay
Дата кодирования : UTC 2020-05-01 12:28:49
Программа кодирования : mkvmerge v7.3.0 ('Nouages') 64bit built on Oct 22 2014 18:53:34
Библиотека кодирования : libebml v1.3.0 + libmatroska v1.4.1

Видео
Идентификатор : 1
Формат : AVC
Формат/Информация : Advanced Video Codec
Профиль формата : High@L4.1
Настройки формата : CABAC / 12 Ref Frames
Параметр CABAC формата : Да
Параметр RefFrames формата : 12 кадров
Идентификатор кодека : V_MPEG4/ISO/AVC
Продолжительность : 1 ч. 37 м.
Битрейт : 2569 Кбит/сек
Ширина : 1024 пикселя
Высота : 424 пикселя
Соотношение сторон : 2,40:1
Соотношение сторон в оригинале : 2,40:1
Режим частоты кадров : Постоянный
Частота кадров : 24,000 кадра/сек
Цветовое пространство : YUV
Субдискретизация насыщенности : 4:2:0
Битовая глубина : 8 бит
Тип развёртки : Прогрессивная
Бит/(Пиксели*Кадры) : 0.246
Размер потока : 1,76 Гбайт (87%)
Заголовок : Rip by grab777
Библиотека кодирования : x264 core 148 r2665M a01e339
Настройки программы : cabac=1 / ref=12 / deblock=1:-2:-2 / analyse=0x3:0x133 / me=umh / subme=10 / psy=1 / psy_rd=1.00:0.15 / mixed_ref=1 / me_range=32 / chroma_me=1 / trellis=2 / 8x8dct=1 / cqm=0 / deadzone=21,11 / fast_pskip=0 / chroma_qp_offset=-3 / threads=5 / lookahead_threads=1 / sliced_threads=0 / nr=0 / decimate=1 / interlaced=0 / bluray_compat=0 / constrained_intra=0 / bframes=10 / b_pyramid=2 / b_adapt=2 / b_bias=0 / direct=3 / weightb=1 / open_gop=0 / weightp=2 / keyint=240 / keyint_min=24 / scenecut=40 / intra_refresh=0 / rc_lookahead=40 / rc=crf / mbtree=1 / crf=15.0 / qcomp=0.90 / qpmin=1 / qpmax=69 / qpstep=4 / vbv_maxrate=30000 / vbv_bufsize=40000 / crf_max=0.0 / nal_hrd=none / filler=0 / ip_ratio=1.40 / aq=1:0.00
Язык : Russian
Default : Да
Forced : Нет

Аудио #1
Идентификатор : 2
Формат : AC-3
Формат/Информация : Audio Coding 3
Параметр Endianness формата : Big
Идентификатор кодека : A_AC3
Продолжительность : 1 ч. 37 м.
Вид битрейта : Постоянный
Битрейт : 192 Кбит/сек
Каналы : 2 канала
Расположение каналов : Front: L R
Частота : 48,0 КГц
Частота кадров : 31,250 кадров/сек (1536 SPF)
Битовая глубина : 16 бит
Метод сжатия : С потерями
Размер потока : 134 Мбайт (6%)
Заголовок : Dub
Язык : Russian
ServiceKind/String : Complete Main
Default : Да
Forced : Да

Аудио #2
Идентификатор : 3
Формат : AC-3
Формат/Информация : Audio Coding 3
Параметр Endianness формата : Big
Идентификатор кодека : A_AC3
Продолжительность : 1 ч. 37 м.
Вид битрейта : Постоянный
Битрейт : 192 Кбит/сек
Каналы : 2 канала
Расположение каналов : Front: L R
Частота : 48,0 КГц
Частота кадров : 31,250 кадров/сек (1536 SPF)
Битовая глубина : 16 бит
Метод сжатия : С потерями
Размер потока : 134 Мбайт (6%)
Заголовок : Original
Язык : Ukrainian
ServiceKind/String : Complete Main
Default : Нет
Forced : Нет

Меню
00:00:00.000 : :Глава 1
00:15:38.389 : :Глава 2
00:30:19.560 : :Глава 3
00:42:54.000 : :Глава 4
00:57:24.575 : :Глава 5
01:11:42.858 : :Глава 6

pb.wtf



Скачать Секс и ничего личного через торрент http://pic1.kartinco.top/images/12/g5j89.jpg Скачать фильм Секс и ничего личного через торрент бесплантно в хорошем качестве Описание: Когда любимая девушка «выносит тебе гарбуз», мотивируя это тем, что ты полный бездарь в постели — значит, счастливой жизни пришел ... 10 10 6
Info! Золотая раздача, скачанное не засчитывается.
Торрент: Зарегистрирован [2020-05-01 14:06] · скачан: 218 раз
Статус: √ проверено
Размер: 2.02 GB
Как cкачать? Как скачать Секс и ничего личного через торрент | UTorrent

28-11-2019 20:33  

Отключить всю рекламу на сайте

    Дорогой пользователь! Огромная просьба, поблагодарите релизера, оцените раздачу и оставьте свои комментарий, если Вы скачали Секс и ничего личного через торрент бесплатно! Внесите свою лепту в развитие PiratBit!
    Комментировать посты могут только пользователи прошедшие не сложную регистрацию
    Показать сообщения:    

    Секс и ничего личного через торрент
    Скачать бесплатно Секс и ничего личного
    Секс и ничего личного скачать торрент
    Секс и ничего личного смотреть онлайн
    Cкачать фильм Секс и ничего личного бесплатно
    Секс и ничего личного скачать торрент в хорошем качестве
    Секс и ничего личного смотреть онлайн бесплатно в хорошем качестве


    Вы не можете начинать темы
    Вы не можете отвечать на сообщения
    Вы не можете редактировать свои сообщения
    Вы не можете удалять свои сообщения
    Вы не можете голосовать в опросах
    Вы не можете прикреплять файлы к сообщениям
    Вы можете скачивать файлы