Ссылка на приватное зеркало всего за 1$. Внимание количество ограничено!!!

iTunes

iTunes

iTunes

1

iTunes

iTunes

iTunes

iTunes

iTunes

30
pack

Новость дня

ВАЖНО

!!Акция!!

Alien_RageХит недели

RePack

Resident Evil 21

ИГРА 18+

pack

RePack

jed

!!Акция!!

Alien_Rage

RePack

fifa19

RePack

Assassins Creed: Odyssey

RePack

NEED FOR SPEED™ PAYBACK

4 сезон

9 сезон

Бесстыжие 9 сезон

Все сериалы

все сериалы на PB.wtf

RePack

FAR CRY 5
  

Беезумие / Сезон: 1 / Серии: 1-5 из 8 (Александр Молочников) [2020, Комедия, WEBRip] pb.wtf

Беезумие через торрент pb.wtf

Размер: 1.33 GB | Добавлен: 4 д. назад | Торрент скачан:4 раза
Скачать  

01-05-2020 15:51 Беезумие Скачать торрент  

Беезумие
Год выпуска: 2020
Страна: Россия
Студия: Производство ООО "Киностудия МИМ"
Жанр: Комедия
Продолжительность: ~ 00:19:00
Перевод: Не требуется
Субтитры: отсутствуют

Режиссер: Александр Молочников

В ролях: Александр Молочников, Евгений Стычкин, Игорь Верник, Максим Матвеев, Аглая Тарасова, Кристина Асмус, Григорий Верник, Александра Ремизова (II), Людмила Хмельницкая

Описание: Модный московский режиссер горит желанием поставить новый спектакль. Но, как назло, все заперты по домам и сам он застрял где-то за границей. Вместе с известными артистами ему приходится репетировать удаленно. Правда, не всё идет по плану, потому что отношения, секс и родители теперь тоже онлайн. Да и сам спектакль добавляет безумия, ведь в главной роли — настоящая овца...



Качество: WEBRip
Формат: AVI

Видео: XviD,~ 1700 Кбит/с, 720x400, 25 кадр/c
Аудио: 48.0 kHz, AC3 Dolby Digital, 2/0 (L,R) ch, ~ 192 kbps
скриншот  скриншот  скриншот  скриншот  

Общее
Полное имя : C:\Beezumie.2020.XviD.WEBRip.ExKinoRay\Beezumie.E01.2020.XviD.WEBRip.ExKinoRay.avi
Формат : AVI
Формат/Информация : Audio Video Interleave
Размер файла : 272 Мбайт
Продолжительность : 18 м. 6 с.
Общий поток : 2098 Кбит/сек
Программа кодирования : VirtualDubMod 1.5.10.3 | www.virtualdub-fr.org || (build 2550/release)
Библиотека кодирования : VirtualDubMod build 2550/release

Видео
Идентификатор : 0
Формат : MPEG-4 Visual
Профиль формата : Advanced Simple@L5
Настройки формата : BVOP1 / Custom Matrix
Параметр BVOP формата : 1
Параметр QPel формата : Нет
Параметр GMC формата : Без точки перехода
Параметр матрицы формата : Выборочная
Идентификатор кодека : XVID
Идентификатор кодека/Подсказка : XviD
Продолжительность : 18 м. 6 с.
Битрейт : 1700 Кбит/сек
Ширина : 720 пикселей
Высота : 400 пикселей
Соотношение сторон : 16:9
Частота кадров : 25,000 кадров/сек
Цветовое пространство : YUV
Субдискретизация насыщенности : 4:2:0
Битовая глубина : 8 бит
Тип развёртки : Прогрессивная
Метод сжатия : С потерями
Бит/(Пиксели*Кадры) : 0.236
Размер потока : 220 Мбайт (81%)
Библиотека кодирования : XviD 73

Аудио #1
Идентификатор : 1
Формат : AC-3
Формат/Информация : Audio Coding 3
Коммерческое название : Dolby Digital
Идентификатор кодека : 2000
Продолжительность : 18 м. 6 с.
Вид битрейта : Постоянный
Битрейт : 192 Кбит/сек
Каналы : 2 канала
ChannelLayout : L R
Частота : 48,0 КГц
Частота кадров : 31,250 кадров/сек (1536 SPF)
Битовая глубина : 16 бит
Метод сжатия : С потерями
Размер потока : 24,9 Мбайт (9%)
Выравнивание : Разделение по промежуткам
Продолжительность промежутка : 40 мс. (1,00 видеокадр)
Время предзагрузки промежутка : 500 мс.
ServiceKind/String : Complete Main

Аудио #2
Идентификатор : 2
Формат : AC-3
Формат/Информация : Audio Coding 3
Коммерческое название : Dolby Digital
Идентификатор кодека : 2000
Продолжительность : 18 м. 4 с.
Вид битрейта : Постоянный
Битрейт : 192 Кбит/сек
Каналы : 2 канала
ChannelLayout : L R
Частота : 48,0 КГц
Частота кадров : 31,250 кадров/сек (1536 SPF)
Битовая глубина : 16 бит
Метод сжатия : С потерями
Размер потока : 24,8 Мбайт (9%)
Выравнивание : Разделение по промежуткам
Продолжительность промежутка : 40 мс. (1,00 видеокадр)
Время предзагрузки промежутка : 500 мс.
ServiceKind/String : Complete Main

Когда раздача ведётся путём добавления новых серий, при каждом добавлении создётся новый торрент. Чтобы начать докачку новой серии, пользователям необходимо сделать следующее:
(1) остановить скачивание,
(2) удалить старый торрент у себя из клиента (старые серии удалять не надо),
(3) скачать новый торрент и запустить его у себя в клиенте вместо старого, при этом указать клиенту путь в старую папку, куда и должно происходить скачивание новых серий.
Ваш клиент при этом должен произвести хеширование (проверку) старой папки (если не производит сам - помогите ему сделать это), и будет докачивать только те серии, которых у вас ещё нет. Старые серии при этом не удаляются, а продолжают раздаваться!
Eсли вы уже удалили старые серии, то предотвратить повторную закачку старых серий можно, отжав галочку в соответсвующих местах при запуске нового торрента. По возможности, желательно не удалять старые серии как можно дольше, чтобы релизер не столько продолжал раздавать старые серии, а смог сконцентрироваться на новых.
pb.wtf



Скачать Беезумие через торрент https://img12.lostpic.net/2020/05/01/de61276a436336bf41007604b0e39852.th.jpg Скачать фильм Беезумие через торрент бесплантно в хорошем качестве Описание: Модный московский режиссер горит желанием поставить новый спектакль. Но, как назло, все заперты по домам и сам он застрял где-то ... 10 10 5
Торрент: Зарегистрирован [2020-05-23 00:12] · скачан: 4 раз
Статус: √ проверено
Размер: 1.33 GB
Как cкачать? Как скачать Беезумие через торрент | qTorrent

% Раздел Тема Автор DL S | L
Наши сериалы [ 2.72 GB ] Беезумие / Сезон: 1 / Серии: 1-5 из 8 [2020 WEBRip 720p] bober100 Скачать
1 | 1

28-11-2019 20:33  

Отключить всю рекламу на сайте

    Дорогой пользователь! Огромная просьба, поблагодарите релизера, оцените раздачу и оставьте свои комментарий, если Вы скачали Беезумие через торрент бесплатно! Внесите свою лепту в развитие PiratBit!
    Комментировать посты могут только пользователи прошедшие не сложную регистрацию
    Показать сообщения:    

    Беезумие через торрент
    Скачать бесплатно Беезумие
    Беезумие скачать торрент
    Беезумие смотреть онлайн
    Cкачать фильм Беезумие бесплатно
    Беезумие скачать торрент в хорошем качестве
    Беезумие смотреть онлайн бесплатно в хорошем качестве


    Вы не можете начинать темы
    Вы не можете отвечать на сообщения
    Вы не можете редактировать свои сообщения
    Вы не можете удалять свои сообщения
    Вы не можете голосовать в опросах
    Вы не можете прикреплять файлы к сообщениям
    Вы можете скачивать файлы