Ссылка на приватное зеркало нашего сайта всего за 1$. Внимание количество ограничено!!!

2 сезон

iTunes

1 сезон

1

iTunes

iTunes

iTunes

1 сезон

RePack

30

ИГРА 18+

pack

ВАЖНО

!!Акция!!

Alien_RageХит недели

RePack

MK11
pack

Забери бонус

RePack

jed

!!Акция!!

Alien_Rage

RePack

fifa19

RePack

Assassins Creed: Odyssey

RePack

NEED FOR SPEED™ PAYBACK

4 сезон

9 сезон

Бесстыжие 9 сезон

Все сериалы

все сериалы на PB.wtf

RePack

FAR CRY 5
  

Беезумие / Сезон: 1 / Серии: 1-8 из 8 (Александр Молочников) [2020, Комедия, WEBRip 1080p] pb.wtf

Беезумие через торрент pb.wtf

Размер: 6.42 GB | Добавлен: 4 мес. 1 д. назад | Торрент скачан:12 раз
Скачать  

01-05-2020 17:23 Беезумие Скачать торрент  

Беезумие
Год выпуска: 2020
Страна: Россия
Студия: Производство ООО "Киностудия МИМ"
Жанр: Комедия
Продолжительность: ~ 00:19:00
Перевод: Не требуется
Субтитры: отсутствуют

Режиссер: Александр Молочников

В ролях: Александр Молочников, Евгений Стычкин, Игорь Верник, Максим Матвеев, Аглая Тарасова, Кристина Асмус, Григорий Верник, Александра Ремизова (II), Людмила Хмельницкая

Описание: Модный московский режиссер горит желанием поставить новый спектакль. Но, как назло, все заперты по домам и сам он застрял где-то за границей. Вместе с известными артистами ему приходится репетировать удаленно. Правда, не всё идет по плану, потому что отношения, секс и родители теперь тоже онлайн. Да и сам спектакль добавляет безумия, ведь в главной роли — настоящая овца...



Качество: WEBRip 1080p
Формат: MKV

Видео: 1920х1080 (16:9), 25 fps, AVC MPEG-4 (x264), High@L4.1 ~ 6000 kbps avg, 0.113 bit/pixel
Аудио#1: 48 kHz, AC3, 2 ch, 192 kbps avg ~ 1 c цензурой
Аудио#2: 48 kHz, AC3, 2 ch, 192 kbps avg ~ 2 без цензуры
скриншот  скриншот  скриншот  скриншот  

Общее
Уникальный идентификатор : 179446125849635368659109757849064887303 (0x870011146B1913F5AF2AA77F943ED407)
Полное имя : C:\Beezumie.2020.WEBRip.(1080p).ExKinoRay\Beezumie.E01.2020.WEBRip.(1080p).ExKinoRay.mkv
Формат : Matroska
Версия формата : Version 4
Размер файла : 826 Мбайт
Продолжительность : 18 м. 6 с.
Общий поток : 6381 Кбит/сек
Дата кодирования : UTC 2020-05-01 16:59:19
Программа кодирования : mkvmerge v6.9.1 ('Blue Panther') 64bit built on Apr 18 2014 18:23:38
Библиотека кодирования : libebml v1.3.0 + libmatroska v1.4.1

Видео
Идентификатор : 1
Формат : AVC
Формат/Информация : Advanced Video Codec
Профиль формата : High@L4.1
Настройки формата : CABAC / 4 Ref Frames
Параметр CABAC формата : Да
Параметр RefFrames формата : 4 кадра
Идентификатор кодека : V_MPEG4/ISO/AVC
Продолжительность : 18 м. 6 с.
Битрейт : 6000 Кбит/сек
Ширина : 1920 пикселей
Высота : 1080 пикселей
Соотношение сторон : 16:9
Режим частоты кадров : Постоянный
Частота кадров : 25,000 кадров/сек
Цветовое пространство : YUV
Субдискретизация насыщенности : 4:2:0
Битовая глубина : 8 бит
Тип развёртки : Прогрессивная
Бит/(Пиксели*Кадры) : 0.113
Размер потока : 760 Мбайт (92%)
Default : Да
Forced : Нет
Цветовой диапазон : Limited
Основные цвета : BT.709
Характеристики трансфера : BT.709
Коэффициенты матрицы : BT.709

Аудио #1
Идентификатор : 2
Формат : AC-3
Формат/Информация : Audio Coding 3
Коммерческое название : Dolby Digital
Идентификатор кодека : A_AC3
Продолжительность : 18 м. 6 с.
Вид битрейта : Постоянный
Битрейт : 192 Кбит/сек
Каналы : 2 канала
ChannelLayout : L R
Частота : 48,0 КГц
Частота кадров : 31,250 кадров/сек (1536 SPF)
Битовая глубина : 16 бит
Метод сжатия : С потерями
Размер потока : 24,9 Мбайт (3%)
Заголовок : Cenzura
Язык : Russian
ServiceKind/String : Complete Main
Default : Да
Forced : Да

Аудио #2
Идентификатор : 3
Формат : AC-3
Формат/Информация : Audio Coding 3
Коммерческое название : Dolby Digital
Идентификатор кодека : A_AC3
Продолжительность : 18 м. 6 с.
Вид битрейта : Постоянный
Битрейт : 192 Кбит/сек
Каналы : 2 канала
ChannelLayout : L R
Частота : 48,0 КГц
Частота кадров : 31,250 кадров/сек (1536 SPF)
Битовая глубина : 16 бит
Метод сжатия : С потерями
Размер потока : 24,9 Мбайт (3%)
Заголовок : Bez cenzury
Язык : Russian
ServiceKind/String : Complete Main
Default : Нет
Forced : Нет

Когда раздача ведётся путём добавления новых серий, при каждом добавлении создётся новый торрент. Чтобы начать докачку новой серии, пользователям необходимо сделать следующее:
(1) остановить скачивание,
(2) удалить старый торрент у себя из клиента (старые серии удалять не надо),
(3) скачать новый торрент и запустить его у себя в клиенте вместо старого, при этом указать клиенту путь в старую папку, куда и должно происходить скачивание новых серий.
Ваш клиент при этом должен произвести хеширование (проверку) старой папки (если не производит сам - помогите ему сделать это), и будет докачивать только те серии, которых у вас ещё нет. Старые серии при этом не удаляются, а продолжают раздаваться!
Eсли вы уже удалили старые серии, то предотвратить повторную закачку старых серий можно, отжав галочку в соответсвующих местах при запуске нового торрента. По возможности, желательно не удалять старые серии как можно дольше, чтобы релизер не столько продолжал раздавать старые серии, а смог сконцентрироваться на новых.
pb.wtf
!bober100 писал(а):

в релизе две аудио дорожки
аудио 1 c цензурой
аудио 2 без цензуры
По умолчанию дорожка аудио поставлена с цензурой



Скачать Беезумие через торрент https://img12.lostpic.net/2020/05/01/de61276a436336bf41007604b0e39852.th.jpg Скачать фильм Беезумие через торрент бесплантно в хорошем качестве Описание: Модный московский режиссер горит желанием поставить новый спектакль. Но, как назло, все заперты по домам и сам он застрял где-то ... 10 10 3
Торрент: Зарегистрирован [2020-06-18 17:50] · скачан: 12 раз
Статус: √ проверено
Размер: 6.42 GB
Как cкачать? Как скачать Беезумие через торрент | qTorrent

% Раздел Тема Автор DL S | L
Наши сериалы [ 4.41 GB ] Беезумие / Сезон: 1 / Серии: 1-8 из 8 [2020 WEBRip 720p] bober100 Скачать
1 | 0
Наши сериалы [ 1.8 GB ] Беезумие / Сезон: 1 / Серии: 1-8 из 8 [2020 WEBRip-AVC] bober100 Скачать
2 | 0
Наши сериалы [ 2.17 GB ] Беезумие / Сезон: 1 / Серии: 1-8 из 8 [2020 WEBRip] bober100 Скачать
1 | 0

28-11-2019 20:33  

Отключить всю рекламу на сайте

    Дорогой пользователь! Огромная просьба, поблагодарите релизера, оцените раздачу и оставьте свои комментарий, если Вы скачали Беезумие через торрент бесплатно! Внесите свою лепту в развитие PiratBit!
    Комментировать посты могут только пользователи прошедшие не сложную регистрацию
    Показать сообщения:    

    Беезумие через торрент
    Скачать бесплатно Беезумие
    Беезумие скачать торрент
    Беезумие смотреть онлайн
    Cкачать фильм Беезумие бесплатно
    Беезумие скачать торрент в хорошем качестве
    Беезумие смотреть онлайн бесплатно в хорошем качестве


    Вы не можете начинать темы
    Вы не можете отвечать на сообщения
    Вы не можете редактировать свои сообщения
    Вы не можете удалять свои сообщения
    Вы не можете голосовать в опросах
    Вы не можете прикреплять файлы к сообщениям
    Вы можете скачивать файлы