Ссылка на приватное зеркало нашего сайта всего за 1$. Внимание количество ограничено!!!

2 сезон

iTunes

1 сезон

1

2 сезон

2 сезон

iTunes

1 сезон

RePack

30

Новинка

ВАЖНО

ИГРА 18+

pack

RePack

MK11
pack

Забери бонус

RePack

jed

!!Акция!!

Alien_Rage

RePack

fifa19

RePack

Assassins Creed: Odyssey

RePack

NEED FOR SPEED™ PAYBACK

4 сезон

9 сезон

Бесстыжие 9 сезон

Все сериалы

все сериалы на PB.wtf

RePack

FAR CRY 5
  

Убийства по открыткам / The Postcard Killings (Данис Танович) [2020, Детектив, криминал, драма, WEB-DL 720p] VO [zamez] - ExKinoRay pb.wtf

Убийства по открыткам через торрент pb.wtf

Раздают: 1 [ 0 KB/s ]
Размер: 4.75 GB | Добавлен: 6 мес. назад | Торрент скачан:236 раз
Скачать  

01-05-2020 18:59 Убийства по открыткам Скачать торрент  

Убийства по открыткам / The Postcard Killings
Год выпуска: 2020
Страна: Великобритания, США / Good Films Collective, K. JAM Media
Жанр: Детектив, криминал, драма
Продолжительность: 01:44:17
Перевод: Любительский одноголосый [zamez]
Субтитры: Английские

Режиссер: Данис Танович

rating

В ролях: Джеффри Дин Морган, Фамке Янссен, Каш Джамбо, Йоахим Круль, Стивен Макинтош, Наоми Баттрик, Руаири О’Коннор, Эва Рёзе, Лукас Лугрэн, Дэнис О’Хэр

Описание: Лондон, Мадрид, Стокгольм… В Европе орудует жестокий и изощрённый маньяк-убийца. Перемещаясь из города в город, он дразнит полицию, посылая журналистам подсказки в виде открыток из музеев. Одной из его жертв становится дочь опытного и харизматичного детектива из Нью-Йорка, Джейкоба Кэнона. Теперь его цель — найти убийцу и отомстить.

Качество: WEB-DL 720p
Формат: MKV
Видео кодек: H.264
Аудио кодек: AC3
Видео: MPEG-4 AVC, 5243 Кбит/с, 1280x544
Аудио#1: Русский (AC3, 6 ch, 640 Кбит/с) АVO (zamez)
Аудио#2: Английский (EAC3, 6 ch, 640 Кбит/с) Original

Релиз от:
Общее
Уникальный идентификатор : 242700099346661096492277826672540431462 (0xB69656C115DBCC2E9589174D3316B466)
Полное имя : D:\Раздача\Ubiyistvo.Po.Otkrytkam.2020.AMZN.WEB-DL 720p.ExKinoRay.mkv
Формат : Matroska
Версия формата : Version 4 / Version 2
Размер файла : 4,75 Гбайт
Продолжительность : 1 ч. 44 м.
Общий поток : 6526 Кбит/сек
Название фильма : The Postcard Killings.2020.AMZN.WEB-DL 720p.grab777 & ExKinoRay
Дата кодирования : UTC 2020-05-01 17:16:57
Программа кодирования : mkvmerge v7.3.0 ('Nouages') 64bit built on Oct 22 2014 18:53:34
Библиотека кодирования : libebml v1.3.0 + libmatroska v1.4.1

Видео
Идентификатор : 1
Формат : AVC
Формат/Информация : Advanced Video Codec
Профиль формата : High@L3.1
Настройки формата : CABAC / 4 Ref Frames
Параметр CABAC формата : Да
Параметр RefFrames формата : 4 кадра
Идентификатор кодека : V_MPEG4/ISO/AVC
Продолжительность : 1 ч. 44 м.
Вид битрейта : Постоянный
Битрейт : 5243 Кбит/сек
Номинальный битрейт : 6000 Кбит/сек
Ширина : 1280 пикселей
Высота : 544 пикселя
Соотношение сторон : 2,35:1
Соотношение сторон в оригинале : 2,35:1
Режим частоты кадров : Постоянный
Частота кадров : 23,976 (24000/1001) кадра/сек
Цветовое пространство : YUV
Субдискретизация насыщенности : 4:2:0
Битовая глубина : 8 бит
Тип развёртки : Прогрессивная
Бит/(Пиксели*Кадры) : 0.314
Размер потока : 3,82 Гбайт (80%)
Заголовок : AMZN
Default : Да
Forced : Нет
Цветовой диапазон : Limited
Основные цвета : BT.709
Характеристики трансфера : BT.709
Коэффициенты матрицы : BT.709

Аудио #1
Идентификатор : 2
Формат : AC-3
Формат/Информация : Audio Coding 3
Параметр Endianness формата : Big
Идентификатор кодека : A_AC3
Продолжительность : 1 ч. 44 м.
Вид битрейта : Постоянный
Битрейт : 640 Кбит/сек
Каналы : 6 каналов
Расположение каналов : Front: L C R, Side: L R, LFE
Частота : 48,0 КГц
Частота кадров : 31,250 кадров/сек (1536 SPF)
Битовая глубина : 16 бит
Метод сжатия : С потерями
Размер потока : 477 Мбайт (10%)
Заголовок : AVO (zamez)
Язык : Russian
ServiceKind/String : Complete Main
Default : Да
Forced : Да

Аудио #2
Идентификатор : 3
Формат : E-AC-3
Формат/Информация : Enhanced Audio Coding 3
Параметр Endianness формата : Big
Идентификатор кодека : A_EAC3
Продолжительность : 1 ч. 44 м.
Вид битрейта : Постоянный
Битрейт : 640 Кбит/сек
Каналы : 6 каналов
Расположение каналов : Front: L C R, Side: L R, LFE
Частота : 48,0 КГц
Частота кадров : 187,500 кадров/сек (256 SPF)
Метод сжатия : С потерями
Размер потока : 477 Мбайт (10%)
Заголовок : Original
Язык : English
ServiceKind/String : Complete Main
Default : Нет
Forced : Нет

Текст #1
Идентификатор : 4
Формат : UTF-8
Идентификатор кодека : S_TEXT/UTF8
Идентификатор кодека/Информация : UTF-8 Plain Text
Продолжительность : 1 ч. 35 м.
Битрейт : 54 бит/сек
ElementCount : 1256
Размер потока : 38,4 Кбайт (0%)
Язык : English
Default : Нет
Forced : Нет

Текст #2
Идентификатор : 5
Формат : UTF-8
Идентификатор кодека : S_TEXT/UTF8
Идентификатор кодека/Информация : UTF-8 Plain Text
Продолжительность : 1 ч. 39 м.
Битрейт : 56 бит/сек
ElementCount : 1382
Размер потока : 41,0 Кбайт (0%)
Заголовок : SDH
Язык : English
Default : Нет
Forced : Нет

pb.wtf



Скачать Убийства по открыткам через торрент http://pic1.kartinco.top/images/12/j53mj.jpg Скачать фильм Убийства по открыткам через торрент бесплантно в хорошем качестве Описание: Лондон, Мадрид, Стокгольм… В Европе орудует жестокий и изощрённый маньяк-убийца. Перемещаясь из города в город, он дразнит ... 10 10 7
Info! Золотая раздача, скачанное не засчитывается.
Торрент: Зарегистрирован [2020-05-01 18:59] · скачан: 236 раз
Статус: T временная
Размер: 4.75 GB
Как cкачать? Как скачать Убийства по открыткам через торрент | qTorrent

28-11-2019 20:33  

Отключить всю рекламу на сайте

01-05-2020 19:13 Убийства по открыткам Скачать торрент  

Ниган всех убьетpb.wtf



01-05-2020 19:28 Убийства по открыткам Скачать торрент  

Оу!...Янка Вамвсем... pb.wtf



02-05-2020 04:38 Убийства по открыткам Скачать торрент  

lic007 писал(а):

Ниган всех убьет

Все заточили актера в одну роль pb.wtf



02-05-2020 07:25 Убийства по открыткам Скачать торрент  

спасибо, но с таким рейтингом нужно ждать многоголоску.pb.wtf



    Дорогой пользователь! Огромная просьба, поблагодарите релизера, оцените раздачу и оставьте свои комментарий, если Вы скачали Убийства по открыткам через торрент бесплатно! Внесите свою лепту в развитие PiratBit!
    Комментировать посты могут только пользователи прошедшие не сложную регистрацию
    Показать сообщения:    

    Убийства по открыткам через торрент
    Скачать бесплатно Убийства по открыткам
    Убийства по открыткам скачать торрент
    Убийства по открыткам смотреть онлайн
    Cкачать фильм Убийства по открыткам бесплатно
    Убийства по открыткам скачать торрент в хорошем качестве
    Убийства по открыткам смотреть онлайн бесплатно в хорошем качестве


    Вы не можете начинать темы
    Вы не можете отвечать на сообщения
    Вы не можете редактировать свои сообщения
    Вы не можете удалять свои сообщения
    Вы не можете голосовать в опросах
    Вы не можете прикреплять файлы к сообщениям
    Вы можете скачивать файлы