2 сезон

iTunes

MVO

1

2 сезон

iTunes

iTunes

1 сезон

RePack

30

Новинка

ВАЖНО

ИГРА 18+

pack

RePack

MK11
pack

Легкие деньги

RePack

jed

RePack

fifa19

RePack

RDR2

RePack

NEED FOR SPEED™ PAYBACK

4 сезон

9 сезон

Бесстыжие 9 сезон

Все сериалы

все сериалы на PB.wtf

RePack

FAR CRY 5

Anonymous, доброе утро, мы не успеваем собрать деньги на оплату серверов за декабрь и январь, помогите нам пожалуйста в это трудное время. В качестве благодарности мы отключим Вам всю рекламу на сайте (укажите свой ник в строку Ваше имя)!

×
  
Magnet ссылка

Левиафан / Leviathan (Джордж Пан Косматос) [1989 г., Ужасы, фантастика, триллер, приключения, BDRip 720p / 60 FPS, Профессиональный (многоголосый)] от R.G. HD-Films pb.wtf

Левиафан через торрент pb.wtf

Размер: 3.06 GB | Добавлен: 8 мес. назад | Торрент скачан:109 раз
Скачать  

02-05-2020 09:52 Левиафан Скачать торрент  

Левиафан / Leviathan
Год выпуска: : 1989
Страна: : США, Италия
Жанр: : Ужасы, фантастика, триллер, приключения
Продолжительность: 01:38:01
Перевод: Профессиональный (многоголосый, закадровый)
Субтитры: English

Режиссер: Джордж Пан Косматос

Бюджет: $25 000 000
Премьера в мире: 17 марта 1989

rating

В ролях: Питер Уэллер, Ричард Кренна, Аманда Пейс, Дэниэл Стерн, Эрни Хадсон, Лиза Айлбахер, Майкл Кармине, Гектор Элисондо, Мег Фостер, Юджин Липински


Сюжет фильма: Во время вахтенных работ по добыче руды на пятикилометровой глубине в Атлантике один из техников находит затонувшее русское судно. Вскоре выясняется, что на судне велись секретные эксперименты. В сейфе, принесенном из корабля на подводную базу шахтеров, находятся записи о таинственной болезни, поразившей весь экипаж корабля. Вскоре один из шахтеров умирает и мутирует в жуткое чудовище, которое начинает уничтожать все живое на своем пути…

Качество видео: BDRip 720p / 60 FPS
Формат: MKV
Видео кодек: H.264
Аудио кодек: AC3
Видео : x264, 1280 x 544 ( 2,35:1 ), 4088 kbps, 60,000 fps, ( 0.098 bpp)
Аудио : Русский, AC-3, 48.0 KHz, 6 ch, 384 Kbps
Релиз от:

скриншот   скриншот   скриншот   скриншот   скриншот   скриншот  Автор рипа: slaventi-69
x264 [info]: frame I:2110 Avg QP:16.61 size: 65503
x264 [info]: frame P:89068 Avg QP:17.52 size: 18296
x264 [info]: frame B:261323 Avg QP:19.54 size: 4724
x264 [info]: consecutive B-frames: 3.7% 4.9% 9.1% 9.9% 65.7% 6.9%


Общее
Уникальный идентификатор : 131302209144116712107848540701431071481 (0x62C7E2B901D436AB29DD4FD9860E82F9)
Полное имя : F:\Leviathan.(1989).BDRip.720p.(60 Fps).mkv
Формат : Matroska
Версия формата : Version 4
Размер файла : 3,06 Гбайт
Продолжительность : 1 ч. 37 м.
Общий поток : 4476 Кбит/сек
Название фильма : Левиафан / Leviathan (1989) BDRip 720p (60 Fps)
Дата кодирования : UTC 2020-05-01 09:37:36
Программа кодирования : mkvmerge v42.0.0 ('Overtime') 64-bit
Библиотека кодирования : libebml v1.3.10 + libmatroska v1.5.2

Видео
Идентификатор : 1
Формат : AVC
Формат/Информация : Advanced Video Codec
Профиль формата : High@L4.1
Настройки формата : CABAC / 8 Ref Frames
Параметр CABAC формата : Да
Параметр RefFrames формата : 8 кадров
Идентификатор кодека : V_MPEG4/ISO/AVC
Продолжительность : 1 ч. 37 м.
Битрейт : 4088 Кбит/сек
Ширина : 1280 пикселей
Высота : 544 пикселя
Соотношение сторон : 2,35:1
Режим частоты кадров : Постоянный
Частота кадров : 60,000 кадров/сек
Цветовое пространство : YUV
Субдискретизация насыщенности : 4:2:0
Битовая глубина : 8 бит
Тип развёртки : Прогрессивная
Бит/(Пиксели*Кадры) : 0.098
Размер потока : 2,80 Гбайт (91%)
Заголовок : slaventi-69 ( R.G. HD-Films | 60 fps )
Библиотека кодирования : x264 core 130 r2273 b3065e6
Настройки программы : cabac=1 / ref=8 / deblock=1:-1:-1 / analyse=0x3:0x133 / me=umh / subme=9 / psy=1 / psy_rd=1.00:0.00 / mixed_ref=1 / me_range=26 / chroma_me=1 / trellis=2 / 8x8dct=1 / cqm=0 / deadzone=21,11 / fast_pskip=0 / chroma_qp_offset=-2 / threads=4 / lookahead_threads=1 / sliced_threads=0 / nr=0 / decimate=1 / interlaced=0 / bluray_compat=0 / constrained_intra=0 / bframes=5 / b_pyramid=2 / b_adapt=2 / b_bias=0 / direct=3 / weightb=1 / open_gop=0 / weightp=2 / keyint=250 / keyint_min=25 / scenecut=40 / intra_refresh=0 / rc=crf / mbtree=0 / crf=17.5 / qcomp=0.60 / qpmin=0 / qpmax=69 / qpstep=4 / ip_ratio=1.40 / pb_ratio=1.30 / aq=1:1.00
Язык : English
Default : Да
Forced : Нет

Аудио
Идентификатор : 2
Формат : AC-3
Формат/Информация : Audio Coding 3
Коммерческое название : Dolby Digital
Идентификатор кодека : A_AC3
Продолжительность : 1 ч. 37 м.
Вид битрейта : Постоянный
Битрейт : 384 Кбит/сек
Каналы : 6 каналов
Channel layout : L R C LFE Ls Rs
Частота : 48,0 КГц
Частота кадров : 31,250 кадров/сек (1536 SPF)
Битовая глубина : 16 бит
Метод сжатия : С потерями
Размер потока : 269 Мбайт (9%)
Заголовок : MVO
Язык : Russian
ServiceKind/String : Complete Main
Default : Да
Forced : Нет

Текст
Идентификатор : 3
Формат : UTF-8
Идентификатор кодека : S_TEXT/UTF8
Идентификатор кодека/Информация : UTF-8 Plain Text
Продолжительность : 1 ч. 30 м.
Битрейт : 54 бит/сек
ElementCount : 936
Размер потока : 36,1 Кбайт (0%)
Язык : English
Default : Нет
Forced : Нет

Меню
00:00:00.000 : en:00:00:00.000
00:09:03.543 : en:00:09:03.543
00:20:53.252 : en:00:20:53.252
00:30:06.679 : en:00:30:06.679
00:37:13.648 : en:00:37:13.648
00:42:23.374 : en:00:42:23.374
00:47:19.211 : en:00:47:19.211
00:55:52.807 : en:00:55:52.807
01:03:30.431 : en:01:03:30.431
01:09:26.162 : en:01:09:26.162
01:17:29.853 : en:01:17:29.853
01:29:53.388 : en:01:29:53.388

Просьба к переливающим на другие сайты, в оформлении указывайте пожалуйста авторство группы R.G. HD-Films pb.wtf



Скачать Левиафан через торрент http://s020.radikal.ru/i702/1409/d7/22b3c4b0bfe4.png Скачать фильм Левиафан через торрент бесплантно в хорошем качестве В ролях: Питер Уэллер, Ричард Кренна, Аманда Пейс, Дэниэл Стерн, Эрни Хадсон, Лиза Айлбахер, Майкл Кармине, Гектор Элисондо, Мег Фостер, ... 10 10 9
Info! Золотая раздача, скачанное не засчитывается.
Торрент: Зарегистрирован [2020-05-02 09:52] · скачан: 109 раз
Статус: √ проверено
Размер: 3.06 GB
Как cкачать? Как скачать Левиафан через торрент | UTorrent

28-11-2019 20:33  

Отключить всю рекламу на сайте

02-05-2020 10:08 Левиафан Скачать торрент  

Как можно смотреть фильмы 60фпс пипец простоpb.wtf



02-05-2020 12:42 Левиафан Скачать торрент  

Predator7128 писал(а):

Как можно смотреть фильмы 60фпс пипец просто

От куда вы сюда залетаете? Из радела новые торренты? Забудь сюда тропку если что то не устраивает! Как видиш если много предложений значит много спроса! Иди лесом!pb.wtf



02-05-2020 12:47 Левиафан Скачать торрент  

Самое прикольное в том, что тролли слетаются в эту ветку, как мухи на дерьмо. Ребята, если вам делать не ..уй, идите чем-то другим занимайтесь, а не лазьте в Интернете и не гадьте в комментах. А мы смотрели, смотрим и будем смотреть старое олдскульное кино в качестве 60fps и пошли вы все на ....

А за фильм раздающему спасибо!!! Это первый фильм на DVD который я купил еще в 2005 году, диск двухсторонний, на обратной стороне был фильм Нечто/The Thing. Классика жанра. Фантастика ужасов или ужас фантастический. СПАСИБО ОГРОМНОЕ!!!pb.wtf



02-05-2020 12:52 Левиафан Скачать торрент  

Автор спасибо, ох и страшным казался этот фильм в детстве.pb.wtf



02-05-2020 16:52 Левиафан Скачать торрент  

да, ужасы нынче не теpb.wtf



    Дорогой пользователь! Огромная просьба, поблагодарите релизера, оцените раздачу и оставьте свои комментарий, если Вы скачали Левиафан через торрент бесплатно! Внесите свою лепту в развитие PiratBit!
    Комментировать посты могут только пользователи прошедшие не сложную регистрацию
    Показать сообщения:    

    Левиафан через торрент
    Скачать бесплатно Левиафан
    Левиафан скачать торрент
    Левиафан смотреть онлайн
    Cкачать фильм Левиафан бесплатно
    Левиафан скачать торрент в хорошем качестве
    Левиафан смотреть онлайн бесплатно в хорошем качестве


    Вы не можете начинать темы
    Вы не можете отвечать на сообщения
    Вы не можете редактировать свои сообщения
    Вы не можете удалять свои сообщения
    Вы не можете голосовать в опросах
    Вы не можете прикреплять файлы к сообщениям
    Вы можете скачивать файлы