Ссылка на приватное зеркало нашего сайта всего за 1$. Внимание количество ограничено!!!

2 сезон

iTunes

1 сезон

1

iTunes

iTunes

iTunes

1 сезон

RePack

30

ИГРА 18+

pack

ВАЖНО

!!Акция!!

Alien_RageХит недели

RePack

MK11
pack

Забери бонус

RePack

jed

!!Акция!!

Alien_Rage

RePack

fifa19

RePack

Assassins Creed: Odyssey

RePack

NEED FOR SPEED™ PAYBACK

4 сезон

9 сезон

Бесстыжие 9 сезон

Все сериалы

все сериалы на PB.wtf

RePack

FAR CRY 5
  

Смерть в объективе / Сезон: 1 / Серии: 1-12 из 12 (Артур Румынский) [2020, Детектив, SATRip] pb.wtf

Смерть в объективе через торрент pb.wtf

Размер: 7.1 GB | Добавлен: 5 мес. 6 д. назад | Торрент скачан:20 раз
Скачать  

02-05-2020 09:56 Смерть в объективе Скачать торрент  

Смерть в объективе
Год выпуска: 2020
Страна: Россия
Жанр: Детектив
Продолжительность: ~ 00:45:00
Субтитры: отсутствуют

Режиссер: Артур Румынский



В ролях: Майя Горбань, Пётр Нестеров, Евгений Сидихин, Мария Куликова, Ксения Щербакова, Елена Сафонова, Дмитрий Фрид, Татьяна Черкасова, Антон Эльдаров, Елена Полякова, Алексей Вакулов, Константин Балакирев, Софья Ардова, Галина Польских, Анатолий Лобоцкий, Алёна Яковлева, Константин Соловьёв, Александр Соколовский, Екатерина Соломатина, Даниил Спиваковский, Жанна Эппле, Илья Ловкий, Екатерина Стулова, Максим Меркулов, Андрей Пынзару, Кирилл Иванченко, Павел Мисаилов, Елена Котельникова, Майя Вознесенская, Саша Шелетов, Дмитрий Богдан, Галина Звягинцева, Александр Волков (IV), Дмитрий Бедерин, Алексей Войтюк, Андрей Арзяев, Адам Нехай, Юрий Игоров, Наталия Кислицына, Александр Вершинин, Светлана Степанковская, Егор Вадов, Алёна Спивак, Нодар Сирадзе, Руслан Миколенко, Роман Лянчук, Олеся Брежнева, Людмила Житкова, Елена Лычагина, Жанетта Гурская

Описание: Загадочная смерть успешного бизнесмена Сергея Норского потянула за собой череду таинственных и невероятных открытий. Его супруга Валерия Азарова, талантливый фотохудожник, способный разглядеть и подвергнуть анализу малейшие детали, уверена, что смерть Сергея - это не несчастный случай. Вместе с Феликсом Фишером, одним из самых успешных страховых следователей, они приподнимают завесу тайны над прошлым её мужа и раскрывают обстоятельства его смерти. Возникшая между героями симпатия превращает их в прекрасный тандем, распутывающий самые невероятные страховые аферы.

Качество: SATRip
Формат: AVI

Видео: XviD, 720x400, ~ 1700 Кбит/с, 0.235 bit/pixel, 25 Кадр/с
Аудио: МР3, 48,0 КГц, 2 ch, 192 Кбит/с
скриншот  скриншот  скриншот  скриншот  скриншот  

Общее
Полное имя : D:\Смерть.в.Объективе.XviD.SATRip.7turza™\S01.Мышеловка.XviD.2020.SATRip.7turza™\01.Мышеловка.S01.7turza™.avi
Формат : AVI
Формат/Информация : Audio Video Interleave
Размер файла : 588 Мбайт
Продолжительность : 43 м. 13 с.
Общий поток : 1900 Кбит/сек
Название фильма : S01 E01 # from 7turza #
Программа кодирования : Lavf58.29.100

Видео
Идентификатор : 0
Формат : MPEG-4 Visual
Профиль формата : Advanced Simple@L5
Настройки формата : BVOP1
Параметр BVOP формата : 1
Параметр QPel формата : Нет
Параметр GMC формата : Без точки перехода
Параметр матрицы формата : Default (H.263)
Идентификатор кодека : XVID
Идентификатор кодека/Подсказка : XviD
Продолжительность : 43 м. 13 с.
Битрейт : 1695 Кбит/сек
Ширина : 720 пикселей
Высота : 400 пикселей
Соотношение сторон : 16:9
Частота кадров : 25,000 кадров/сек
Цветовое пространство : YUV
Субдискретизация насыщенности : 4:2:0
Битовая глубина : 8 бит
Тип развёртки : Прогрессивная
Метод сжатия : С потерями
Бит/(Пиксели*Кадры) : 0.235
Размер потока : 524 Мбайт (89%)
Библиотека кодирования : XviD 67

Аудио
Идентификатор : 1
Формат : MPEG Audio
Версия формата : Version 1
Профиль формата : Layer 3
Настройки формата : Joint stereo / MS Stereo
Идентификатор кодека : 55
Идентификатор кодека/Подсказка : MP3
Продолжительность : 43 м. 13 с.
Вид битрейта : Постоянный
Битрейт : 192 Кбит/сек
Каналы : 2 канала
Частота : 48,0 КГц
Метод сжатия : С потерями
Размер потока : 59,4 Мбайт (10%)
Выравнивание : Соединение по промежуткам
Продолжительность промежутка : 24 мс. (0,60 видеокадр)
Библиотека кодирования : LAME3.100UUUUUUUD$Ô

Внимание! Раздача ведётся путём добавления новых серий; при каждом добавлении создаётся новый торрент.
Чтобы начать докачку новой серии, пользователям необходимо сделать следующее:
1. Остановить скачивание;
2. Удалить старый торрент у себя из клиента (старые серии удалять не надо);
3. Скачать новый торрент и запустить его у себя в клиенте вместо старого, при этом указать клиенту путь в старую папку куда и должно происходить скачивание новых серий. Ваш клиент при этом должен произвести хеширование (проверку) старой папки и будет докачивать только те серии, которых у вас ещё нет. Старые серии при этом не удаляются, а продолжают раздаваться! Eсли вы уже удалили старые серии, то предотвратить повторную закачку старых серий можно, отжав галочку в соответствующих местах при запуске нового торрента.
pb.wtf



Скачать Смерть в объективе через торрент https://a.radikal.ru/a33/2005/b5/f367d8ee3f3a.jpg Скачать фильм Смерть в объективе через торрент бесплантно в хорошем качестве Описание: Загадочная смерть успешного бизнесмена Сергея Норского потянула за собой череду таинственных и невероятных открытий. Его супруга ... 10 10 4
Торрент: Зарегистрирован [2020-05-17 01:11] · скачан: 20 раз
Статус: √ проверено
Размер: 7.1 GB
Как cкачать? Как скачать Смерть в объективе через торрент | qTorrent

% Раздел Тема Автор DL S | L
Наши сериалы [ 6.84 GB ] Смерть в объективе / Сезон: 1 / Серии: 1-12 из 12 [2020 WEB-DLRip] bober100 Скачать
1 | 0
Наши сериалы [ 6.81 GB ] Смерть в объективе / Сезон: 1 / Серии: 1-12 из 12 [2020 WEB-DLRip-AVC] bober100 Скачать
1 | 0
Наши сериалы [ 10.81 GB ] Смерть в объективе / Сезон: 1 / Серии: 1-12 из 12 [2020 WEB-DL 720p] bober100 Скачать
1 | 0

28-11-2019 20:33  

Отключить всю рекламу на сайте

    Дорогой пользователь! Огромная просьба, поблагодарите релизера, оцените раздачу и оставьте свои комментарий, если Вы скачали Смерть в объективе через торрент бесплатно! Внесите свою лепту в развитие PiratBit!
    Комментировать посты могут только пользователи прошедшие не сложную регистрацию
    Показать сообщения:    

    Смерть в объективе через торрент
    Скачать бесплатно Смерть в объективе
    Смерть в объективе скачать торрент
    Смерть в объективе смотреть онлайн
    Cкачать фильм Смерть в объективе бесплатно
    Смерть в объективе скачать торрент в хорошем качестве
    Смерть в объективе смотреть онлайн бесплатно в хорошем качестве


    Вы не можете начинать темы
    Вы не можете отвечать на сообщения
    Вы не можете редактировать свои сообщения
    Вы не можете удалять свои сообщения
    Вы не можете голосовать в опросах
    Вы не можете прикреплять файлы к сообщениям
    Вы можете скачивать файлы