Ссылка на приватное зеркало нашего сайта всего за 1$. Внимание количество ограничено!!!

2 сезон

iTunes

1 сезон

1

iTunes

iTunes

iTunes

1 сезон

RePack

30

ИГРА 18+

pack

ВАЖНО

!!Акция!!

Alien_RageХит недели

RePack

MK11
pack

Забери бонус

RePack

jed

!!Акция!!

Alien_Rage

RePack

fifa19

RePack

Assassins Creed: Odyssey

RePack

NEED FOR SPEED™ PAYBACK

4 сезон

9 сезон

Бесстыжие 9 сезон

Все сериалы

все сериалы на PB.wtf

RePack

FAR CRY 5
  

Я тебя найду / Серии: 1-4 из 4 (Сергей Толкушкин) [2019, Детектив, мелодрама, WEB-DLRip-AVC] pb.wtf

Я тебя найду через торрент pb.wtf

Размер: 2.42 GB | Добавлен: 5 мес. 20 д. назад | Торрент скачан:11 раз
Скачать  

02-05-2020 10:07 Я тебя найду Скачать торрент  

Я тебя найду
Год выпуска: 2019
Страна: Украина
Жанр: Детектив, мелодрама
Продолжительность: ~ 00:48:00
Перевод: Не требуется
Субтитры: отсутствуют

Режиссер: Сергей Толкушкин

В ролях: Ольга Олексий, Михаил Химичев, Александр Кобзарь, Елизавета Майская, Ева Шевченко-Головко, Константин Чернокрылюк, Ксения Мишина, Демьян Вовченко, Руслан Коваль, Ксения Комкова, Людмила Кузьмина, Елена Демченко, Артем Вильбик, Максим Даньшин, Оксана Восканян, Сергей Бережко, Сергей Детюк, Алёна Тимкова, Екатерина Вишнёвая, Валерий Рождественский

Описание: Это детективная мелодрама, повествующая о двух подругах, которые после долгой разлуки случайно встречаются в кондитерской небольшого городка. Жизнь одной из них, Лили – полная чаша, у нее есть все, что нужно для счастья: прекрасный дом, любящий муж, замечательный сын и даже очаровательная дочка, которая вопреки прогнозам врачей, всего несколько дней назад появилась на свет. В судьбе же Вики далеко не все так радужно. Лиля приходит в кондитерскую, чтобы забрать огромный торт для торжества по случаю рождения дочери, где и встречает Вику. Подруги договариваются вновь увидеться. Но именно в этот вечер в доме Лили происходит страшный пожар, в котором погибает новорожденная малышка. Лиля не может оправиться после страшной трагедии, но материнское сердце подсказывает ей, что дочь не погибла. И убитая горем мать твердит, что ее девочка жива. Но все вокруг считают, что у нее из-за трагической утраты помутился рассудок.

Качество: WEB-DLRip-AVC
Формат: MKV

Видео: MPEG-4 AVC, ~ 1600 Кбит/с, 1024x576, 25 кадр/с
Аудио: 48.0 kHz, AC3 Dolby Digital, 2/0 (L,R) ch, ~ 192 kbps
скриншот  скриншот  скриншот  скриншот  

General
Unique ID : 219408460259670277525020291051470398980 (0xA51088492D6EB090907B8B37D4372604)
Complete name : F:\Я тебя найду.(2019).WEB-DLRip.(AVC).Files-x\01.Я тебя найду.(2019).WEB-DLRip.(AVC).by.Серый1779.Files-x.mkv
Format : Matroska
Format version : Version 2
File size : 617 MiB
Duration : 48 min 6 s
Overall bit rate : 1 794 kb/s
Encoded date : UTC 2020-04-27 05:36:30
Writing application : mkvmerge v7.8.0 ('River Man') 32bit built on Apr 3 2015 12:11:22
Writing library : libebml v1.3.1 + libmatroska v1.4.2

Video
ID : 1
Format : AVC
Format/Info : Advanced Video Codec
Format profile : High@L4.1
Format settings : CABAC / 9 Ref Frames
Format settings, CABAC : Yes
Format settings, RefFrames : 9 frames
Codec ID : V_MPEG4/ISO/AVC
Duration : 48 min 6 s
Bit rate : 1 600 kb/s
Width : 1 024 pixels
Height : 576 pixels
Display aspect ratio : 16:9
Frame rate mode : Constant
Frame rate : 25.000 FPS
Color space : YUV
Chroma subsampling : 4:2:0
Bit depth : 8 bits
Scan type : Progressive
Bits/(Pixel*Frame) : 0.109
Stream size : 539 MiB (87%)
Writing library : x264 core 146 r2538 121396c
Encoding settings : cabac=1 / ref=9 / deblock=1:-2:-1 / analyse=0x3:0x133 / me=umh / subme=9 / psy=1 / psy_rd=1.00:0.15 / mixed_ref=1 / me_range=32 / chroma_me=1 / trellis=2 / 8x8dct=1 / cqm=0 / deadzone=21,11 / fast_pskip=0 / chroma_qp_offset=-3 / threads=18 / lookahead_threads=3 / sliced_threads=0 / nr=0 / decimate=1 / interlaced=0 / bluray_compat=0 / constrained_intra=0 / bframes=9 / b_pyramid=2 / b_adapt=2 / b_bias=0 / direct=1 / weightb=1 / open_gop=0 / weightp=2 / keyint=250 / keyint_min=25 / scenecut=40 / intra_refresh=0 / rc=2pass / mbtree=0 / bitrate=1600 / ratetol=1.0 / qcomp=0.60 / qpmin=0 / qpmax=69 / qpstep=4 / cplxblur=20.0 / qblur=0.5 / ip_ratio=1.40 / pb_ratio=1.30 / aq=2:1.00
Default : Yes
Forced : No
Color range : Limited
Color primaries : BT.709
Transfer characteristics : BT.709
Matrix coefficients : BT.709

Audio
ID : 2
Format : AC-3
Format/Info : Audio Coding 3
Format settings, Endianness : Big
Codec ID : A_AC3
Duration : 48 min 6 s
Bit rate mode : Constant
Bit rate : 192 kb/s
Channel(s) : 2 channels
Channel positions : Front: L R
Sampling rate : 48.0 kHz
Frame rate : 31.250 FPS (1536 SPF)
Bit depth : 16 bits
Compression mode : Lossy
Stream size : 66.1 MiB (11%)
Service kind : Complete Main
Default : Yes
Forced : No

pb.wtf



Скачать Я тебя найду через торрент https://i109.fastpic.ru/big/2019/0218/78/775879f831544c202c796ad0631b8c78.jpg Скачать фильм Я тебя найду через торрент бесплантно в хорошем качестве Описание: Это детективная мелодрама, повествующая о двух подругах, которые после долгой разлуки случайно встречаются в кондитерской ... 10 10 3
Торрент: Зарегистрирован [2020-05-02 10:07] · скачан: 11 раз
Статус: √ проверено
Размер: 2.42 GB
Как cкачать? Как скачать Я тебя найду через торрент | qTorrent

% Раздел Тема Автор DL S | L
Наши сериалы [ 7.02 GB ] Я тебя найду / Серии: 1-4 из 4 [2019 WEB-DL 1080p] bober100 Скачать
1 | 0
Наши сериалы [ 4.98 GB ] Я тебя найду / Серии: 1-4 из 4 [2019 WEB-DL 720p] bober100 Скачать
1 | 0
Наши сериалы [ 2.44 GB ] Я тебя найду / Серии: 1-4 из 4 [2019 WEB-DLRip] bober100 Скачать
3 | 0

28-11-2019 20:33  

Отключить всю рекламу на сайте

    Дорогой пользователь! Огромная просьба, поблагодарите релизера, оцените раздачу и оставьте свои комментарий, если Вы скачали Я тебя найду через торрент бесплатно! Внесите свою лепту в развитие PiratBit!
    Комментировать посты могут только пользователи прошедшие не сложную регистрацию
    Показать сообщения:    

    Я тебя найду через торрент
    Скачать бесплатно Я тебя найду
    Я тебя найду скачать торрент
    Я тебя найду смотреть онлайн
    Cкачать фильм Я тебя найду бесплатно
    Я тебя найду скачать торрент в хорошем качестве
    Я тебя найду смотреть онлайн бесплатно в хорошем качестве


    Вы не можете начинать темы
    Вы не можете отвечать на сообщения
    Вы не можете редактировать свои сообщения
    Вы не можете удалять свои сообщения
    Вы не можете голосовать в опросах
    Вы не можете прикреплять файлы к сообщениям
    Вы можете скачивать файлы