Ссылка на приватное зеркало всего за 1$. Внимание количество ограничено!!!

iTunes

iTunes

iTunes

1

iTunes

iTunes

iTunes

WEBRip

iTunes

30
pack

$ от Little Big

ВАЖНО

!!Акция!!

Alien_RageХит недели

RePack

Resident Evil 21

ИГРА 18+

pack

RePack

jed

!!Акция!!

Alien_Rage

RePack

fifa19

RePack

Assassins Creed: Odyssey

RePack

NEED FOR SPEED™ PAYBACK

4 сезон

9 сезон

Бесстыжие 9 сезон

Все сериалы

все сериалы на PB.wtf

RePack

FAR CRY 5
  

Спутник (Егор Абраменко) [2020, фантастика, триллер, драма, WEB-DLRip-AVC] pb.wtf

Спутник через торрент pb.wtf

Раздают: 105 [ 931 KB/s ]
Размер: 1.49 GB | Добавлен: 3 мес. 7 д. назад | Торрент скачан:629 раз
Скачать  

02-05-2020 10:53 Спутник Скачать торрент  

Спутник

Страна: Россия
Жанр: фантастика, триллер, драма
Год выпуска: 2020
Продолжительность: 01:53:44

Перевод: Не требуется
Субтитры: нет
Оригинальная аудиодорожка: русский

Режиссер: Егор Абраменко

В ролях: Оксана Акиньшина, Пётр Фёдоров, Фёдор Бондарчук, Антон Васильев, Виталия Корниенко, Наталья Швец, Алексей Демидов, Александр Марушев, Альбрехт Зандер, Александр Шам

Описание: СССР, 1983 год. На землю возвращается космический аппарат, но от людей скрывают, что из двух космонавтов живым можно считать только одного. Что произошло на борту, остается загадкой, но факты указывают на то, что космонавты столкнулись с новой формой жизни, и выживший вернулся не совсем один. На засекреченную военную базу, где космонавт Константин Вешняков содержится под строгим контролем и наблюдением, привозят нейрофизиолога Татьяну Климову, чтобы она оценила его состояние.



Релиз:

Автор рипа: stalkerok

Сэмпл

Качество видео: WEB-DLRip-AVC | Исходник: WEB-DL 1080p ivi
Формат видео: MKV
Видео кодек: AVC
Аудио кодек: AC3
Видео: AVC, 1677 Кбит/сек, 1152x480 (2.40:1), 24 кадр/сек
Аудио: AC3, 192 Кбит/сек, 48 КГц, 2.0 - русский
---[Information] [28.04.2020 21:54:44] x264 [info]: frame I:1051 Avg QP:12.95 size: 44725
---[Information] [28.04.2020 21:54:44] x264 [info]: frame P:31571 Avg QP:14.53 size: 18992
---[Information] [28.04.2020 21:54:44] x264 [info]: frame B:131160 Avg QP:16.21 size: 5979
---[Information] [28.04.2020 21:54:44] x264 [info]: consecutive B-frames: 1.2% 1.6% 7.6% 10.2% 15.0% 34.9% 24.0% 1.7% 2.7% 0.1% 0.2% 0.2% 0.2% 0.1% 0.2% 0.0%

General
Unique ID : 222339477769599382261620818778622421304 (0xA745069B31F17F167F5AAC5F8C626938)
Complete name : C:\temp\Sputnik\Sputnik.2020.WEB-DLRip.x264.Rus.stalkerok.New-Team.mkv
Format : Matroska
Format version : Version 4
File size : 1.49 GiB
Duration : 1 h 53 min
Overall bit rate : 1 871 kb/s
Movie name : Спутник (2020) | Rip by stalkerok
Encoded date : UTC 2020-04-28 19:07:12
Writing application : mkvmerge v44.0.0 ('Domino') 64-bit
Writing library : libebml v1.3.10 + libmatroska v1.5.2

Video
ID : 1
Format : AVC
Format/Info : Advanced Video Codec
Format profile : High@L4.1
Format settings : CABAC / 12 Ref Frames
Format settings, CABAC : Yes
Format settings, Reference frames : 12 frames
Codec ID : V_MPEG4/ISO/AVC
Duration : 1 h 53 min
Bit rate : 1 677 kb/s
Width : 1 152 pixels
Height : 480 pixels
Display aspect ratio : 2.40:1
Frame rate mode : Constant
Frame rate : 24.000 FPS
Color space : YUV
Chroma subsampling : 4:2:0
Bit depth : 8 bits
Scan type : Progressive
Bits/(Pixel*Frame) : 0.126
Stream size : 1.33 GiB (90%)
Title : Спутник (2020) | Rip by stalkerok
Writing library : x264 core 160 r3000 33f9e14
Encoding settings : cabac=1 / ref=12 / deblock=1:-3:-3 / analyse=0x3:0x133 / me=umh / subme=10 / psy=1 / psy_rd=1.00:0.00 / mixed_ref=1 / me_range=32 / chroma_me=1 / trellis=2 / 8x8dct=1 / cqm=0 / deadzone=21,11 / fast_pskip=0 / chroma_qp_offset=-2 / threads=12 / lookahead_threads=3 / sliced_threads=0 / nr=0 / decimate=1 / interlaced=0 / bluray_compat=0 / constrained_intra=0 / bframes=16 / b_pyramid=2 / b_adapt=2 / b_bias=0 / direct=3 / weightb=1 / open_gop=0 / weightp=2 / keyint=240 / keyint_min=23 / scenecut=40 / intra_refresh=0 / rc_lookahead=60 / rc=crf / mbtree=0 / crf=17.6 / qcomp=0.65 / qpmin=0 / qpmax=69 / qpstep=4 / vbv_maxrate=50000 / vbv_bufsize=62500 / crf_max=0.0 / nal_hrd=none / filler=0 / ip_ratio=1.40 / pb_ratio=1.30 / aq=3:0.80 / zones=150672,163781,q=32
Default : Yes
Forced : No

Audio
ID : 2
Format : AC-3
Format/Info : Audio Coding 3
Commercial name : Dolby Digital
Codec ID : A_AC3
Duration : 1 h 53 min
Bit rate mode : Constant
Bit rate : 192 kb/s
Channel(s) : 2 channels
Channel layout : L R
Sampling rate : 48.0 kHz
Frame rate : 31.250 FPS (1536 SPF)
Compression mode : Lossy
Stream size : 156 MiB (10%)
Language : Russian
Service kind : Complete Main
Default : Yes
Forced : No
pb.wtf



Скачать Спутник через торрент http://i6.imageban.ru/out/2017/09/18/2ff75c0c358795c5946784cc1680714d.png Скачать фильм Спутник через торрент бесплантно в хорошем качестве Описание: СССР, 1983 год. На землю возвращается космический аппарат, но от людей скрывают, что из двух космонавтов живым можно считать ... 10 10 15
Info! Золотая раздача, скачанное не засчитывается.
Торрент: Зарегистрирован [2020-05-02 10:53] · скачан: 629 раз
Статус: T временная
Размер: 1.49 GB
Как cкачать? Как скачать Спутник через торрент | qTorrent

% Раздел Тема Автор DL S | L
Наши фильмы (HD, WEB-DL 720p, 1080p) [ 3.96 GB ] Спутник [2020 WEB-DL 1080p] bober100 Скачать
7 | 0
T Наши новые фильмы 2018-2019 [ 744 MB ] Спутник [2020 WEB-DLRip-AVC] sokol_ok Скачать
32 | 0
T Наши фильмы (HD, WEB-DL 720p, 1080p) [ 2.53 GB ] Спутник [2020 WEB-DL 720p] bober100 Скачать
7 | 0
Наши новые фильмы 2018-2019 [ 745 MB ] Спутник [2020 WEB-DLRip] bober100 Скачать
3 | 1
Наши новые фильмы 2018-2019 [ 2.18 GB ] Спутник [2020 WEB-DLRip] bober100 Скачать
5 | 0
Наши новые фильмы 2018-2019 [ 2.18 GB ] Спутник [2020 WEB-DLRip-AVC] bober100 Скачать
2 | 0
Наши новые фильмы 2018-2019 [ 1.44 GB ] Спутник [2020 WEB-DLRip] bober100 Скачать
6 | 0

28-11-2019 20:33  

Отключить всю рекламу на сайте

04-05-2020 09:15 Спутник Скачать торрент  

На разок сойдет.pb.wtf



08-05-2020 01:01 Спутник Скачать торрент  

эх... чего только стоят постоянно светящиеся индикаторы перегрузки на S-30B
... а как рукой магнит оторвал от динамической головки... вообще шедевр!
Россия как всегда...pb.wtf



09-05-2020 05:06 Спутник Скачать торрент  

Лично моё мнение-дерьмо.Главной героине за неадекватные поступки желал смерти.pb.wtf



    Дорогой пользователь! Огромная просьба, поблагодарите релизера, оцените раздачу и оставьте свои комментарий, если Вы скачали Спутник через торрент бесплатно! Внесите свою лепту в развитие PiratBit!
    Комментировать посты могут только пользователи прошедшие не сложную регистрацию
    Показать сообщения:    

    Спутник через торрент
    Скачать бесплатно Спутник
    Спутник скачать торрент
    Спутник смотреть онлайн
    Cкачать фильм Спутник бесплатно
    Спутник скачать торрент в хорошем качестве
    Спутник смотреть онлайн бесплатно в хорошем качестве


    Вы не можете начинать темы
    Вы не можете отвечать на сообщения
    Вы не можете редактировать свои сообщения
    Вы не можете удалять свои сообщения
    Вы не можете голосовать в опросах
    Вы не можете прикреплять файлы к сообщениям
    Вы можете скачивать файлы