1 сезон

1 сезон

iTunes

1

КиноПоиск HD

Кинопоиск HD

iTunes

13

1 сезон

RePack

30

Deluxe

ВАЖНО

ИГРА 18+

pack

RePack

MK11
pack

Легкие деньги

RePack

jed

RePack

fifa19

RePack

RDR2

RePack

NEED FOR SPEED™ PAYBACK

4 сезон

9 сезон

Бесстыжие 9 сезон

Все сериалы

все сериалы на PB.wtf

RePack

FAR CRY 5
  
Magnet ссылка

Первая ведьма / The Wretched (Бретт Пирс, Дрю Т. Пирс) [2019, Ужасы, BDRip 1080p] DUB [iTunes] pb.wtf

Первая ведьма через торрент pb.wtf

Раздают: 1 [ 8 KB/s ]
Размер: 11.01 GB | Добавлен: 5 мес. 8 д. назад | Торрент скачан:174 раза
Скачать  

02-05-2020 11:19 Первая ведьма Скачать торрент  

Первая ведьма | The Wretched
Год выпуска: 2019
Страна: США
Студия: Cailleach Productions
Жанр: Ужасы
Продолжительность: 01:35:31
Перевод: Дублированный | iTunes
Субтитры: Русские (Forced, Full, SDH), английские (Full, SDH)

Режиссер: Бретт Пирс, Дрю Т. Пирс

rating

В ролях: Джон-Пол Ховард, Пайпер Курда, Джеймисон Джонс, Ази Тесфай, Цара Малер, Кевин Бигли, Габриэла Квезада Блумгарден, Ричард Эллис, Блейн Крокарелл, Джуда Эбнер Пол

Описание: В маленьком забытом богом городке однажды ночью время повернулось вспять, пробудив первородное зло. Парочка Бен и Мэлори, которые любят подглядывать за соседями, замечают, что тех как будто подменили. Да и во всем городе творится что-то странное. Молодым людям придется бросить вызов колдовским чарам, чтобы не допустить в мир древние полчища.

Качество: BDRip 1080p
Формат: MKV

Видео: MPEG-4 AVC, 1920x804 (2.40:1), 23.976 fps, x264 ~15.5 mbps avg, 0.418 bit/pixel
Аудио 1: 48 kHz, AC3 Dolby Digital, 3/2 (L, C, R, l, r) + LFE ch, ~384 kbps | русский
Аудио 2: 48 kHz, AC3 Dolby Digital, 3/2 (L, C, R, l, r) + LFE ch, ~640 kbps | английский
скриншот  скриншот  скриншот  скриншот  

Complete name: Pervaya.vedma.2019.BDRip.1080p.ELEKTRI4KA.UNIONGANG.mkv
Format: Matroska
Format version: Version 4 / Version 2
File size: 11.0 GiB
Duration: 1 h 35 min
Overall bit rate: 16.5 Mb/s
Movie name: .ELEKTRI4KA.UNIONGANG.
Encoded date: UTC 2020-11-27 21:16:33
Writing application: mkvmerge v8.3.0 ('Over the Horizon') 64bit
Writing library: libebml v1.3.1 + libmatroska v1.4.2

Video
ID: 1
Format: AVC
Format/Info: Advanced Video Codec
Format profile: High@L4.1
Format settings, CABAC: Yes
Format settings, Reference frames: 5 frames
Codec ID: V_MPEG4/ISO/AVC
Duration: 1 h 35 min
Bit rate: 15.5 Mb/s
Width: 1 920 pixels
Height: 804 pixels
Display aspect ratio: 2.40:1
Frame rate mode: Constant
Frame rate: 23.976 (24000/1001) FPS
Color space: YUV
Chroma subsampling: 4:2:0
Bit depth: 8 bits
Scan type: Progressive
Bits/(Pixel*Frame): 0.418
Stream size: 10.3 GiB (94%)
Title: .ELEKTRI4KA.UNIONGANG.
Writing library: x264 core 157 r2938 2b00a84 TnP@MTeam Mod
Encoding settings: cabac=1 / ref=5 / deblock=1:-3:-3 / analyse=0x3:0x133 / me=umh / subme=10 / psy=1 / psy_rd=1.05:0.00 / mixed_ref=1 / me_range=32 / chroma_me=1 / trellis=2 / 8x8dct=1 / cqm=0 / deadzone=21, 11 / fast_pskip=0 / chroma_qp_offset=-2 / threads=12 / lookahead_threads=2 / sliced_threads=0 / nr=0 / decimate=0 / interlaced=0 / bluray_compat=0 / constrained_intra=0 / bframes=8 / b_pyramid=2 / b_adapt=2 / b_bias=0 / direct=3 / weightb=1 / open_gop=0 / weightp=2 / keyint=250 / keyint_min=24 / scenecut=40 / intra_refresh=0 / rc_lookahead=250 / rc=crf / mbtree=0 / crf=16.8 / qcomp=0.60 / qpmin=0 / qpmax=69 / qpstep=4 / vbv_maxrate=62500 / vbv_bufsize=78125 / crf_max=0.0 / nal_hrd=none / filler=0 / ip_ratio=1.30 / pb_ratio=1.20 / aq=3:0.80
Language: English
Default: Yes
Forced: No
Color range: Limited
Color primaries: BT.709
Matrix coefficients: BT.709

Audio #1
ID: 2
Format: AC-3
Format/Info: Audio Coding 3
Mode extension: CM (complete main)
Format settings, Endianness: Big
Codec ID: A_AC3
Duration: 1 h 35 min
Bit rate mode: Constant
Bit rate: 384 kb/s
Channel(s): 6 channels
Channel positions: Front: L C R, Side: L R, LFE
Sampling rate: 48.0 kHz
Frame rate: 31.250 FPS (1536 spf)
Bit depth: 16 bits
Compression mode: Lossy
Stream size: 262 MiB (2%)
Title: DUB (iTunes)
Language: Russian
Default: Yes
Forced: Yes

Double G, [27.11.20 23:43]
Audio #2
ID: 3
Format: AC-3
Format/Info: Audio Coding 3
Mode extension: CM (complete main)
Format settings, Endianness: Big
Codec ID: A_AC3
Duration: 1 h 35 min
Bit rate mode: Constant
Bit rate: 640 kb/s
Channel(s): 6 channels
Channel positions: Front: L C R, Side: L R, LFE
Sampling rate: 48.0 kHz
Frame rate: 31.250 FPS (1536 spf)
Bit depth: 16 bits
Compression mode: Lossy
Stream size: 437 MiB (4%)
Title: Original
Language: English
Default: No
Forced: No

Text #1
ID: 4
Format: UTF-8
Codec ID: S_TEXT/UTF8
Codec ID/Info: UTF-8 Plain Text
Duration: 1 h 17 min
Bit rate: 1 b/s
Count of elements: 14
Stream size: 635 Bytes (0%)
Title: Forced
Language: Russian
Default: Yes
Forced: No

Text #2
ID: 5
Format: UTF-8
Codec ID: S_TEXT/UTF8
Codec ID/Info: UTF-8 Plain Text
Duration: 1 h 30 min
Bit rate: 56 b/s
Count of elements: 860
Stream size: 37.4 KiB (0%)
Title: Full
Language: Russian
Default: No
Forced: No

Text #3
ID: 6
Format: UTF-8
Codec ID: S_TEXT/UTF8
Codec ID/Info: UTF-8 Plain Text
Duration: 1 h 30 min
Bit rate: 67 b/s
Count of elements: 1136
Stream size: 45.1 KiB (0%)
Title: SDH
Language: Russian
Default: No
Forced: No

Text #4
ID: 7
Format: UTF-8
Codec ID: S_TEXT/UTF8
Codec ID/Info: UTF-8 Plain Text
Duration: 1 h 30 min
Bit rate: 32 b/s
Count of elements: 867
Stream size: 21.6 KiB (0%)
Language: English
Default: No
Forced: No

Text #5
ID: 8
Format: UTF-8
Codec ID: S_TEXT/UTF8
Codec ID/Info: UTF-8 Plain Text
Duration: 1 h 33 min
Bit rate: 36 b/s
Count of elements: 1124
Stream size: 25.1 KiB (0%)
Title: SDH
Language: English
Default: No
Forced: No

Menu
00:00:00.000: en:Chapter 01
00:05:38.463: en:Chapter 02
00:14:55.812: en:Chapter 03
00:21:28.078: en:Chapter 04
00:30:23.613: en:Chapter 05
00:37:31.583: en:Chapter 06
00:45:46.327: en:Chapter 07
00:53:09.436: en:Chapter 08
01:00:41.847: en:Chapter 09
01:08:16.634: en:Chapter 10
01:19:18.128: en:Chapter 11
01:31:01.665: en:Chapter 12

pb.wtf



Скачать Первая ведьма через торрент https://i1.imageban.ru/out/2020/11/28/6921d6a746a808d1dc00282f992ad5e2.png Скачать фильм Первая ведьма через торрент бесплантно в хорошем качестве Описание: В маленьком забытом богом городке однажды ночью время повернулось вспять, пробудив первородное зло. Парочка Бен и Мэлори, которые ... 9.9 10 19
Торрент: Зарегистрирован [2020-11-28 02:58] · скачан: 174 раз
Статус: √ проверено
Размер: 11.01 GB
Как cкачать? Как скачать Первая ведьма через торрент | UTorrent

% Раздел Тема Автор DL S | L
Фильмы 2019-2020 [DVDrip, WEB-DLRip, HDrip] (DUB, MVO) [ 1.42 GB ] Первая ведьма / The Wretched [2019 BDRip] - Twi7ter Скачать
43 | 1
Фильмы 2019-2020 [DVDrip, WEB-DLRip, HDrip] (DUB, MVO) [ 745 MB ] Первая ведьма / The Wretched [2019 HDRip] bober100 Скачать
3 | 0
Фильмы 2019-2020 [DVDrip, WEB-DLRip, HDrip] (DUB, MVO) [ 1.45 GB ] Первая ведьма / The Wretched [2019 HDRip-AVC] от MediaBit Lithuania Скачать
5 | 0
Фильмы 2019-2020 [DVDrip, WEB-DLRip, HDrip] (DUB, MVO) [ 1.41 GB ] Первая ведьма / The Wretched [2019 BDRip] bober100 Скачать
1 | 0
Фильмы [HD 720p, 1080p] (Хороший звук DUB, MVO) [ 5.41 GB ] Первая ведьма / The Wretched [2019 BDRip 720p] bober100 Скачать
1 | 0

28-11-2019 20:33  

Отключить всю рекламу на сайте

    Дорогой пользователь! Огромная просьба, поблагодарите релизера, оцените раздачу и оставьте свои комментарий, если Вы скачали Первая ведьма через торрент бесплатно! Внесите свою лепту в развитие PiratBit!
    Комментировать посты могут только пользователи прошедшие не сложную регистрацию
    Показать сообщения:    

    Первая ведьма через торрент
    Скачать бесплатно Первая ведьма
    Первая ведьма скачать торрент
    Первая ведьма смотреть онлайн
    Cкачать фильм Первая ведьма бесплатно
    Первая ведьма скачать торрент в хорошем качестве
    Первая ведьма смотреть онлайн бесплатно в хорошем качестве


    Вы не можете начинать темы
    Вы не можете отвечать на сообщения
    Вы не можете редактировать свои сообщения
    Вы не можете удалять свои сообщения
    Вы не можете голосовать в опросах
    Вы не можете прикреплять файлы к сообщениям
    Вы можете скачивать файлы