2 сезон

iTunes

MVO

1

2 сезон

iTunes

iTunes

1 сезон

RePack

30

Новинка

ВАЖНО

ИГРА 18+

pack

RePack

MK11
pack

Легкие деньги

RePack

jed

RePack

fifa19

RePack

RDR2

RePack

NEED FOR SPEED™ PAYBACK

4 сезон

9 сезон

Бесстыжие 9 сезон

Все сериалы

все сериалы на PB.wtf

RePack

FAR CRY 5

Anonymous, доброй ночи, мы не успеваем собрать деньги на оплату серверов за декабрь и январь, помогите нам пожалуйста в это трудное время. В качестве благодарности мы отключим Вам всю рекламу на сайте (укажите свой ник в строку Ваше имя)!

×
  
Magnet ссылка

Стражи Галактики. Часть 2 в 3D / Guardians of the Galaxy Vol. 2 in 3D (Джеймс Ганн) [2017 г., Фантастика, Боевик, Приключения, BDRip 1080p, Дубляж, ( IMAX )] Анаглиф (Дюбуа) от R.G. HD-Films pb.wtf

Стражи Галактики. Часть 2 в 3D через торрент pb.wtf

Размер: 8.54 GB | Добавлен: 8 мес. назад | Торрент скачан:5 раз
Скачать  

02-05-2020 11:26 Стражи Галактики. Часть 2 в 3D Скачать торрент  

Стражи Галактики. Часть 2 в 3D/ Guardians of the Galaxy Vol. 2 in 3D
«Этим летом галактика не спасёт себя»
(IMAX версия)
Год выпуска: : 2017
Страна: : США
Жанр: : Фантастика, Боевик, Приключения
Продолжительность: 02:15:46
Перевод: Дубляж
Субтитры: русские, украинские, английские

Режиссер: Джеймс Ганн

Бюджет: $200 000 000
Премьера в мире: 10 апреля 2017

rating

В ролях: Крис Прэтт, Зои Салдана, Дэйв Батиста, Вин Дизель, Брэдли Купер, Майкл Рукер, Карен Гиллан, Пом Клементьефф, Элизабет Дебики, Курт Расселл


Сюжет фильма: Все в сборе: землянин Питер Квилл (Звездный Лорд), молчаливый громила Дракс, зеленокожая наемница Гамора, живой сучок малыш Грут и говорящий енот. Герои не изменяют себе и с завидной регулярностью продолжают попадать в немыслимые ситуации, выпутываясь из них почти без ущерба (а иногда даже с пользой) для окружающих. На этот раз им предстоит раскрыть одну из самых главных тайн во всей Галактике: кто же на самом деле отец Питера Квилла?

Доп. информация: Формат 3D: Анаглиф (Дюбуа)



Качество видео: BDRip 1080p
Формат: MKV
Видео кодек: H.264
Аудио кодек: AC3
Видео : AVC, 1920 x 1080 (16:9), 7082 kbps, 23,976 fps, 0.142 bpp
Аудио : Русский / AC3 / 48 KHz / 5.1 ch / 640 Kbps (Дубляж - BD CEE)
Аудио : Украинский / AC3 / 48 KHz / 5.1 ch / 640 Kbps (Дубляж) (Спасибо Hurtom!)
Аудио : Английский / AC3 / 48 KHz / 5.1 ch / 640 Kbps (Original - BD 3D)
Релиз от:

скриншот   скриншот   скриншот   скриншот   скриншот   скриншот  Автор рипа: slaventi-69
x264 [info]: frame I:1952 Avg QP:12.85 size:166381
x264 [info]: frame P:53107 Avg QP:14.50 size: 68925
x264 [info]: frame B:140256 Avg QP:16.21 size: 23004
x264 [info]: consecutive B-frames: 4.1% 3.6% 15.1% 36.0% 41.2%


Общее
Уникальный идентификатор : 275743382596451051562745567624482390353 (0xCF723E6675B84068BD7B2ECEFBB60151)
Полное имя : F:\Guardians .of.the.Galaxy.Vol.2.(2017)3D(Anaglyph_Dubois).(IMAX) .mkv
Формат : Matroska
Версия формата : Version 4
Размер файла : 8,54 Гбайт
Продолжительность : 2 ч. 15 м.
Общий поток : 9005 Кбит/сек
Название фильма : Стражи Галактики. Часть 2 / Guardians of the Galaxy Vol. 2 (2017) в 3Д (Anaglyph_Dubois)| IMAX версия |
Дата кодирования : UTC 2020-04-30 10:50:33
Программа кодирования : mkvmerge v42.0.0 ('Overtime') 64-bit
Библиотека кодирования : libebml v1.3.10 + libmatroska v1.5.2

Видео
Идентификатор : 1
Формат : AVC
Формат/Информация : Advanced Video Codec
Профиль формата : High@L4.1
Настройки формата : CABAC / 4 Ref Frames
Параметр CABAC формата : Да
Параметр RefFrames формата : 4 кадра
Идентификатор кодека : V_MPEG4/ISO/AVC
Продолжительность : 2 ч. 15 м.
Битрейт : 7082 Кбит/сек
Ширина : 1920 пикселей
Высота : 1080 пикселей
Соотношение сторон : 16:9
Режим частоты кадров : Постоянный
Частота кадров : 23,976 кадра/сек
Цветовое пространство : YUV
Субдискретизация насыщенности : 4:2:0
Битовая глубина : 8 бит
Тип развёртки : Прогрессивная
Бит/(Пиксели*Кадры) : 0.142
Размер потока : 6,72 Гбайт (79%)
Заголовок : slaventi-69 ( R.G. HD-Films ) 3Д (Anaglyph_Dubois)
Библиотека кодирования : x264 core 130 r2273 b3065e6
Настройки программы : cabac=1 / ref=4 / deblock=1:-1:-1 / analyse=0x3:0x133 / me=umh / subme=9 / psy=1 / psy_rd=1.00:0.00 / mixed_ref=1 / me_range=26 / chroma_me=1 / trellis=2 / 8x8dct=1 / cqm=0 / deadzone=21,11 / fast_pskip=0 / chroma_qp_offset=-2 / threads=4 / lookahead_threads=1 / sliced_threads=0 / nr=0 / decimate=1 / interlaced=0 / bluray_compat=0 / constrained_intra=0 / bframes=4 / b_pyramid=2 / b_adapt=2 / b_bias=0 / direct=3 / weightb=1 / open_gop=0 / weightp=2 / keyint=250 / keyint_min=25 / scenecut=40 / intra_refresh=0 / rc=crf / mbtree=0 / crf=19.5 / qcomp=0.60 / qpmin=0 / qpmax=69 / qpstep=4 / ip_ratio=1.40 / pb_ratio=1.30 / aq=1:1.00
Язык : English
Default : Да
Forced : Нет

Аудио #1
Идентификатор : 2
Формат : AC-3
Формат/Информация : Audio Coding 3
Коммерческое название : Dolby Digital
Идентификатор кодека : A_AC3
Продолжительность : 2 ч. 15 м.
Вид битрейта : Постоянный
Битрейт : 640 Кбит/сек
Каналы : 6 каналов
Channel layout : L R C LFE Ls Rs
Частота : 48,0 КГц
Частота кадров : 31,250 кадров/сек (1536 SPF)
Битовая глубина : 16 бит
Метод сжатия : С потерями
Размер потока : 622 Мбайт (7%)
Заголовок : Дубляж - BD CEE
Язык : Russian
ServiceKind/String : Complete Main
Default : Да
Forced : Нет

Аудио #2
Идентификатор : 3
Формат : AC-3
Формат/Информация : Audio Coding 3
Коммерческое название : Dolby Digital
Идентификатор кодека : A_AC3
Продолжительность : 2 ч. 15 м.
Вид битрейта : Постоянный
Битрейт : 640 Кбит/сек
Каналы : 6 каналов
Channel layout : L R C LFE Ls Rs
Частота : 48,0 КГц
Частота кадров : 31,250 кадров/сек (1536 SPF)
Битовая глубина : 16 бит
Метод сжатия : С потерями
Размер потока : 622 Мбайт (7%)
Заголовок : Дубляж
Язык : Ukrainian
ServiceKind/String : Complete Main
Default : Нет
Forced : Нет

Аудио #3
Идентификатор : 4
Формат : AC-3
Формат/Информация : Audio Coding 3
Коммерческое название : Dolby Digital
Идентификатор кодека : A_AC3
Продолжительность : 2 ч. 15 м.
Вид битрейта : Постоянный
Битрейт : 640 Кбит/сек
Каналы : 6 каналов
Channel layout : L R C LFE Ls Rs
Частота : 48,0 КГц
Частота кадров : 31,250 кадров/сек (1536 SPF)
Битовая глубина : 16 бит
Метод сжатия : С потерями
Размер потока : 622 Мбайт (7%)
Заголовок : Original
Язык : English
ServiceKind/String : Complete Main
Default : Нет
Forced : Нет

Текст #1
Идентификатор : 5
Формат : UTF-8
Идентификатор кодека : S_TEXT/UTF8
Идентификатор кодека/Информация : UTF-8 Plain Text
Продолжительность : 2 ч. 6 м.
Битрейт : 0 бит/сек
ElementCount : 14
Размер потока : 486 байт (0%)
Заголовок : Форсированные
Язык : Russian
Default : Да
Forced : Нет

Текст #2
Идентификатор : 6
Формат : UTF-8
Идентификатор кодека : S_TEXT/UTF8
Идентификатор кодека/Информация : UTF-8 Plain Text
Продолжительность : 2 ч. 14 м.
Битрейт : 74 бит/сек
ElementCount : 1547
Размер потока : 73,8 Кбайт (0%)
Заголовок : Полные
Язык : Russian
Default : Нет
Forced : Нет

Текст #3
Идентификатор : 7
Формат : UTF-8
Идентификатор кодека : S_TEXT/UTF8
Идентификатор кодека/Информация : UTF-8 Plain Text
Продолжительность : 2 ч. 15 м.
Битрейт : 160 бит/сек
ElementCount : 2496
Размер потока : 160 Кбайт (0%)
Заголовок : Коментарии режиссёра Джеймса Ганна
Язык : Russian
Default : Нет
Forced : Нет

Текст #4
Идентификатор : 8
Формат : UTF-8
Идентификатор кодека : S_TEXT/UTF8
Идентификатор кодека/Информация : UTF-8 Plain Text
Продолжительность : 2 ч. 14 м.
Битрейт : 0 бит/сек
ElementCount : 14
Размер потока : 499 байт (0%)
Заголовок : Форсированные (перевод madagaskar1)
Язык : Ukrainian
Default : Нет
Forced : Нет

Текст #5
Идентификатор : 9
Формат : UTF-8
Идентификатор кодека : S_TEXT/UTF8
Идентификатор кодека/Информация : UTF-8 Plain Text
Продолжительность : 2 ч. 14 м.
Битрейт : 77 бит/сек
ElementCount : 1578
Размер потока : 76,1 Кбайт (0%)
Заголовок : Полные (перевод vovikmar)
Язык : Ukrainian
Default : Нет
Forced : Нет

Текст #6
Идентификатор : 10
Формат : UTF-8
Идентификатор кодека : S_TEXT/UTF8
Идентификатор кодека/Информация : UTF-8 Plain Text
Продолжительность : 2 ч. 14 м.
Битрейт : 47 бит/сек
ElementCount : 1578
Размер потока : 46,7 Кбайт (0%)
Заголовок : Full
Язык : English
Default : Нет
Forced : Нет

Текст #7
Идентификатор : 11
Формат : UTF-8
Идентификатор кодека : S_TEXT/UTF8
Идентификатор кодека/Информация : UTF-8 Plain Text
Продолжительность : 2 ч. 14 м.
Битрейт : 55 бит/сек
ElementCount : 1971
Размер потока : 54,4 Кбайт (0%)
Заголовок : SDH
Язык : English
Default : Нет
Forced : Нет

Меню
00:00:00.000 : : 1. Королевская кобра и гигантская морская обезьяна / King Cobra & Giant Sea Monkey
00:09:56.177 : : 2. Золотые болваны / Golden Morons
00:15:10.116 : : 3. Космическая погоня / Space Chase
00:22:14.082 : : 4. Точно не из Миссури / Not From Missouri
00:32:33.701 : : 5. Самые страшные тайны / Deepest, Darkest, Secrets
00:36:52.126 : : 6. Засада на Берхарте / Berhert Ambush
00:42:29.170 : : 7. Поиски смысла / Finding Meaning
00:48:03.463 : : 8. Шокерфейс / Taserface
00:53:18.903 : : 9. Целестиалы играют в мяч / Celestial Catch
00:58:45.938 : : 10. Уговор / Let's Agree To Never Discuss This
01:05:52.239 : : 11. Побег / Eclector Escape
01:11:12.434 : : 12. Сёстры / Sibling Rivalry
01:18:43.592 : : 13. Вечность / Eternity
01:23:55.320 : : 14. Нас двое / Two Of A Kind
01:30:24.752 : : 15. Раздутое эго / Inflated Ego
01:39:36.177 : : 16. Ну и денёк / What A Day
01:47:06.211 : : 17. От всего сердца / From The Heart
01:54:21.604 : : 18. Жертва отца / A Father's Sacrifice
01:58:53.708 : : 19. Цвета Огорда / The Colors Of Ogord
02:07:13.458 : : 20. Финальные титры / End Credits

Просьба к переливающим на другие сайты, в оформлении указывайте пожалуйста авторство группы R.G. HD-Filmspb.wtf



Скачать Стражи Галактики. Часть 2 в 3D через торрент http://i93.fastpic.ru/big/2017/0823/7d/ed4fa832f35d8d7f7de69d194051827d.png Скачать фильм Стражи Галактики. Часть 2 в 3D через торрент бесплантно в хорошем качестве В ролях: Крис Прэтт, Зои Салдана, Дэйв Батиста, Вин Дизель, Брэдли Купер, Майкл Рукер, Карен Гиллан, Пом Клементьефф, Элизабет Дебики, ... 5 10 1
Торрент: Зарегистрирован [2020-05-02 11:26] · скачан: 5 раз
Статус: √ проверено
Размер: 8.54 GB
Как cкачать? Как скачать Стражи Галактики. Часть 2 в 3D через торрент | UTorrent

28-11-2019 20:33  

Отключить всю рекламу на сайте

    Дорогой пользователь! Огромная просьба, поблагодарите релизера, оцените раздачу и оставьте свои комментарий, если Вы скачали Стражи Галактики. Часть 2 в 3D через торрент бесплатно! Внесите свою лепту в развитие PiratBit!
    Комментировать посты могут только пользователи прошедшие не сложную регистрацию
    Показать сообщения:    

    Стражи Галактики. Часть 2 в 3D через торрент
    Скачать бесплатно Стражи Галактики. Часть 2 в 3D
    Стражи Галактики. Часть 2 в 3D скачать торрент
    Стражи Галактики. Часть 2 в 3D смотреть онлайн
    Cкачать фильм Стражи Галактики. Часть 2 в 3D бесплатно
    Стражи Галактики. Часть 2 в 3D скачать торрент в хорошем качестве
    Стражи Галактики. Часть 2 в 3D смотреть онлайн бесплатно в хорошем качестве


    Вы не можете начинать темы
    Вы не можете отвечать на сообщения
    Вы не можете редактировать свои сообщения
    Вы не можете удалять свои сообщения
    Вы не можете голосовать в опросах
    Вы не можете прикреплять файлы к сообщениям
    Вы можете скачивать файлы