Ссылка на приватное зеркало нашего сайта всего за 1$. Внимание количество ограничено!!!

2 сезон

iTunes

1 сезон

1

iTunes

iTunes

iTunes

1 сезон

RePack

30

ИГРА 18+

pack

ВАЖНО

!!Акция!!

Alien_RageХит недели

RePack

MK11
pack

Забери бонус

RePack

jed

!!Акция!!

Alien_Rage

RePack

fifa19

RePack

Assassins Creed: Odyssey

RePack

NEED FOR SPEED™ PAYBACK

4 сезон

9 сезон

Бесстыжие 9 сезон

Все сериалы

все сериалы на PB.wtf

RePack

FAR CRY 5
  

Смерть в объективе / Серии: 1-12 из 12 (Артур Румынский) [2020, детектив, SATRip-AVC] pb.wtf

Смерть в объективе через торрент pb.wtf

Размер: 6.34 GB | Добавлен: 5 мес. 3 д. назад | Торрент скачан:52 раза
Скачать  

02-05-2020 12:15 Смерть в объективе Скачать торрент  

Смерть в объективе
Год выпуска: 2020
Страна: Россия | Маурис Филм | МЭДЖИК ФЭКТОРИ
Жанр: детектив
Продолжительность: 00:43:00
Субтитры: нет
Режиссёр: Артур Румынский

В ролях:Майя Горбань, Петр Нестеров, Евгений Сидихин, Мария Куликова, Ксения Щербакова, Елена Сафонова, Галина Польских, Анатолий Лобоцкий, Алёна Яковлева, Дмитрий Фрид
Описание:
На открытии выставки модного фотохудожника Валерии Азаровой погибает её муж, успешный бизнесмен Сергей Норский. Полиция уверена, что это несчастный случай, однако сама Валерия убеждена, что супруга убили. Выясняется, что погибший был застрахован на крупную сумму от несчастного случая. На арену выходит Феликс Фишер, один из самых успешных страховых следователей. Он помогает Валерии приподнять завесу тайны над прошлым её мужа и выяснить, что же на самом деле произошло с Сергеем Норским.

Качество: SATRip-AVC
Формат: MKV
Видео кодек: H.264
Аудио кодек: AC3
Видео: MPEG4 Video (H264), 720х400, 25fps,1500 Kbps,bit/pixel 0.208
Аудио : AC3 48000Hz, stereo, 192 kbps,2 ch
Общее
Уникальный идентификатор : 234576843036149397534135433131509197993 (0xB079DB4BDCB57B9CA047BAB0AC24ACA9)
Полное имя : H:\Смерть в объективе\01 серия_Смерть в объективе_rip by_Aleksan55.mkv
Формат : Matroska
Версия формата : Version 2
Размер файла : 524 Мбайт
Продолжительность : 43 м. 13 с.
Общий поток : 1693 Кбит/сек
Дата кодирования : UTC 2020-05-02 10:03:11
Программа кодирования : mkvmerge v7.8.0 ('River Man') 32bit built on Apr 3 2015 12:11:22
Библиотека кодирования : libebml v1.3.1 + libmatroska v1.4.2

Видео
Идентификатор : 1
Формат : AVC
Формат/Информация : Advanced Video Codec
Профиль формата : High@L4.1
Настройки формата : CABAC / 12 Ref Frames
Параметр CABAC формата : Да
Параметр RefFrames формата : 12 кадров
Идентификатор кодека : V_MPEG4/ISO/AVC
Продолжительность : 43 м. 13 с.
Битрейт : 1500 Кбит/сек
Ширина : 720 пикселей
Высота : 400 пикселей
Соотношение сторон : 16:9
Режим частоты кадров : Постоянный
Частота кадров : 25,000 кадров/сек
Цветовое пространство : YUV
Субдискретизация насыщенности : 4:2:0
Битовая глубина : 8 бит
Тип развёртки : Прогрессивная
Бит/(Пиксели*Кадры) : 0.208
Размер потока : 454 Мбайт (87%)
Библиотека кодирования : x264 core 146 r2538 121396c
Настройки программы : cabac=1 / ref=12 / deblock=1:-2:-2 / analyse=0x3:0x133 / me=umh / subme=9 / psy=1 / psy_rd=1.00:0.15 / mixed_ref=0 / me_range=24 / chroma_me=1 / trellis=2 / 8x8dct=1 / cqm=0 / deadzone=21,11 / fast_pskip=0 / chroma_qp_offset=-3 / threads=10 / lookahead_threads=5 / sliced_threads=0 / nr=0 / decimate=0 / interlaced=0 / bluray_compat=0 / constrained_intra=0 / bframes=12 / b_pyramid=2 / b_adapt=2 / b_bias=0 / direct=3 / weightb=1 / open_gop=0 / weightp=2 / keyint=250 / keyint_min=25 / scenecut=40 / intra_refresh=0 / rc_lookahead=40 / rc=2pass / mbtree=1 / bitrate=1500 / ratetol=1.0 / qcomp=0.60 / qpmin=0 / qpmax=60 / qpstep=4 / cplxblur=20.0 / qblur=0.5 / ip_ratio=1.40 / aq=1:1.00
Default : Да
Forced : Нет
Цветовой диапазон : Limited
Основные цвета : BT.601 PAL
Характеристики трансфера : BT.470 System B/G
Коэффициенты матрицы : BT.470 System B/G

Аудио
Идентификатор : 2
Формат : AC-3
Формат/Информация : Audio Coding 3
Коммерческое название : Dolby Digital
Идентификатор кодека : A_AC3
Продолжительность : 43 м. 13 с.
Вид битрейта : Постоянный
Битрейт : 192 Кбит/сек
Каналы : 2 канала
ChannelLayout : L R
Частота : 48,0 КГц
Частота кадров : 31,250 кадров/сек (1536 SPF)
Метод сжатия : С потерями
Размер потока : 59,4 Мбайт (11%)
ServiceKind/String : Complete Main
Default : Да
Forced : Нет
Добавлены 9-12 серии.pb.wtf



Скачать Смерть в объективе через торрент http://i111.fastpic.ru/big/2020/0502/eb/cad47e13365ca67c2a7daa3acf9b69eb.jpg Скачать фильм Смерть в объективе через торрент бесплантно в хорошем качестве Описание:На открытии выставки модного фотохудожника Валерии Азаровой погибает её муж, успешный бизнесмен Сергей Норский. Полиция уверена, ... 10 10 5
Торрент: Зарегистрирован [2020-05-16 11:33] · скачан: 52 раз
Статус: √ проверено
Размер: 6.34 GB
Как cкачать? Как скачать Смерть в объективе через торрент | qTorrent

% Раздел Тема Автор DL S | L
Наши сериалы [ 6.84 GB ] Смерть в объективе / Сезон: 1 / Серии: 1-12 из 12 [2020 WEB-DLRip] bober100 Скачать
1 | 0
Наши сериалы [ 6.81 GB ] Смерть в объективе / Сезон: 1 / Серии: 1-12 из 12 [2020 WEB-DLRip-AVC] bober100 Скачать
1 | 0
Наши сериалы [ 10.81 GB ] Смерть в объективе / Сезон: 1 / Серии: 1-12 из 12 [2020 WEB-DL 720p] bober100 Скачать
1 | 0
Наши сериалы [ 7.1 GB ] Смерть в объективе / Сезон: 1 / Серии: 1-12 из 12 [2020 SATRip] bober100 Скачать
1 | 0

28-11-2019 20:33  

Отключить всю рекламу на сайте

    Дорогой пользователь! Огромная просьба, поблагодарите релизера, оцените раздачу и оставьте свои комментарий, если Вы скачали Смерть в объективе через торрент бесплатно! Внесите свою лепту в развитие PiratBit!
    Комментировать посты могут только пользователи прошедшие не сложную регистрацию
    Показать сообщения:    

    Смерть в объективе через торрент
    Скачать бесплатно Смерть в объективе
    Смерть в объективе скачать торрент
    Смерть в объективе смотреть онлайн
    Cкачать фильм Смерть в объективе бесплатно
    Смерть в объективе скачать торрент в хорошем качестве
    Смерть в объективе смотреть онлайн бесплатно в хорошем качестве


    Вы не можете начинать темы
    Вы не можете отвечать на сообщения
    Вы не можете редактировать свои сообщения
    Вы не можете удалять свои сообщения
    Вы не можете голосовать в опросах
    Вы не можете прикреплять файлы к сообщениям
    Вы можете скачивать файлы