Ссылка на приватное зеркало нашего сайта всего за 1$. Внимание количество ограничено!!!

2 сезон

iTunes

1 сезон

1

2 сезон

2 сезон

iTunes

1 сезон

RePack

30

Новинка

ВАЖНО

ИГРА 18+

pack

RePack

MK11
pack

Забери бонус

RePack

jed

!!Акция!!

Alien_Rage

RePack

fifa19

RePack

Assassins Creed: Odyssey

RePack

NEED FOR SPEED™ PAYBACK

4 сезон

9 сезон

Бесстыжие 9 сезон

Все сериалы

все сериалы на PB.wtf

RePack

FAR CRY 5
  

Спутник (Егор Абраменко) [2020, фантастика, триллер, драма, WEB-DLRip-AVC] pb.wtf

Спутник через торрент pb.wtf

Раздают: 11 [ 0 KB/s ]
Размер: 744 MB | Добавлен: 7 мес. назад | Торрент скачан:184 раза
Скачать  

02-05-2020 14:42 Спутник Скачать торрент  

Спутник

Страна: Россия
Жанр: фантастика, триллер, драма
Год выпуска: 2020
Продолжительность: 01:53:44

Перевод: Не требуется
Субтитры: нет
Оригинальная аудиодорожка: русский

Режиссер: Егор Абраменко

В ролях: Оксана Акиньшина, Пётр Фёдоров, Фёдор Бондарчук, Антон Васильев, Виталия Корниенко, Наталья Швец, Алексей Демидов, Александр Марушев, Альбрехт Зандер, Александр Шам

Описание: СССР, 1983 год. На землю возвращается космический аппарат, но от людей скрывают, что из двух космонавтов живым можно считать только одного. Что произошло на борту, остается загадкой, но факты указывают на то, что космонавты столкнулись с новой формой жизни, и выживший вернулся не совсем один. На засекреченную военную базу, где космонавт Константин Вешняков содержится под строгим контролем и наблюдением, привозят нейрофизиолога Татьяну Климову, чтобы она оценила его состояние.



Релиз:

Автор рипа: stalkerok

Сэмпл

Качество видео: WEB-DLRip-AVC | Исходник: WEB-DL 1080p ivi
Формат видео: MKV
Видео кодек: AVC
Аудио кодек: AAC
Видео: AVC, 849 Кбит/сек, 912x380 (2.40:1), 24 кадр/сек
Аудио: AAC, 64 Кбит/сек, 48 КГц, 2.0 - русский
---[Information] [02.05.2020 17:28:38] x264 [info]: frame I:1085 Avg QP:13.08 size: 31703
---[Information] [02.05.2020 17:28:38] x264 [info]: frame P:31248 Avg QP:15.77 size: 10590
---[Information] [02.05.2020 17:28:38] x264 [info]: frame B:131449 Avg QP:16.96 size: 2730
---[Information] [02.05.2020 17:28:38] x264 [info]: consecutive B-frames: 1.3% 1.5% 5.3% 10.7% 15.3% 38.5% 23.0% 1.9% 1.2% 0.1% 0.4% 0.3% 0.2% 0.1% 0.1% 0.1% 0.1%

General
Unique ID : 1731828160530227135466539402217881460 (0x14D89B87C87F9F723DF6A9C4E877F74)
Complete name : C:\temp\Sputnik\Sputnik.2020.WEB-DLRip.x264.745Mb.Rus.stalkerok.New-Team.mkv
Format : Matroska
Format version : Version 4
File size : 744 MiB
Duration : 1 h 53 min
Overall bit rate : 915 kb/s
Movie name : Спутник (2020) | Rip by stalkerok
Encoded date : UTC 2020-05-02 14:33:49
Writing application : mkvmerge v46.0.0 ('No Deeper Escape') 64-bit
Writing library : libebml v1.3.10 + libmatroska v1.5.2

Video
ID : 1
Format : AVC
Format/Info : Advanced Video Codec
Format profile : High@L4.1
Format settings : CABAC / 12 Ref Frames
Format settings, CABAC : Yes
Format settings, Reference frames : 12 frames
Codec ID : V_MPEG4/ISO/AVC
Duration : 1 h 53 min
Bit rate : 849 kb/s
Width : 912 pixels
Height : 380 pixels
Display aspect ratio : 2.40:1
Frame rate mode : Constant
Frame rate : 24.000 FPS
Color space : YUV
Chroma subsampling : 4:2:0
Bit depth : 8 bits
Scan type : Progressive
Bits/(Pixel*Frame) : 0.102
Stream size : 691 MiB (93%)
Title : Спутник (2020) | Rip by stalkerok
Writing library : x264 core 160 r3000 33f9e14
Encoding settings : cabac=1 / ref=12 / deblock=1:-3:-3 / analyse=0x3:0x133 / me=umh / subme=10 / psy=1 / psy_rd=1.00:0.00 / mixed_ref=1 / me_range=32 / chroma_me=1 / trellis=2 / 8x8dct=1 / cqm=0 / deadzone=21,11 / fast_pskip=0 / chroma_qp_offset=-2 / threads=12 / lookahead_threads=2 / sliced_threads=0 / nr=0 / decimate=0 / interlaced=0 / bluray_compat=0 / constrained_intra=0 / bframes=16 / b_pyramid=2 / b_adapt=2 / b_bias=0 / direct=3 / weightb=1 / open_gop=0 / weightp=2 / keyint=240 / keyint_min=23 / scenecut=40 / intra_refresh=0 / rc_lookahead=60 / rc=2pass / mbtree=0 / bitrate=849 / ratetol=1.0 / qcomp=0.65 / qpmin=0 / qpmax=69 / qpstep=4 / cplxblur=20.0 / qblur=0.5 / vbv_maxrate=50000 / vbv_bufsize=62500 / nal_hrd=none / filler=0 / ip_ratio=1.40 / pb_ratio=1.30 / aq=3:1.00 / zones=150672,163781,q=36
Default : Yes
Forced : No

Audio
ID : 2
Format : AAC LC SBR
Format/Info : Advanced Audio Codec Low Complexity with Spectral Band Replication
Commercial name : HE-AAC
Format settings : Explicit
Codec ID : A_AAC-2
Duration : 1 h 53 min
Bit rate : 64.0 kb/s
Channel(s) : 2 channels
Channel layout : L R
Sampling rate : 48.0 kHz
Frame rate : 23.438 FPS (2048 SPF)
Compression mode : Lossy
Delay relative to video : 31 ms
Stream size : 52.1 MiB (7%)
Language : Russian
Default : Yes
Forced : No
pb.wtf



Скачать Спутник через торрент http://i6.imageban.ru/out/2017/09/18/2ff75c0c358795c5946784cc1680714d.png Скачать фильм Спутник через торрент бесплантно в хорошем качестве Описание: СССР, 1983 год. На землю возвращается космический аппарат, но от людей скрывают, что из двух космонавтов живым можно считать ... 8.8 10 6
Торрент: Зарегистрирован [2020-05-02 14:42] · скачан: 184 раз
Статус: T временная
Размер: 744 MB
Как cкачать? Как скачать Спутник через торрент | qTorrent

% Раздел Тема Автор DL S | L
Зарубежные сериалы [ 4.91 GB ] Спутники / Серии: 1-8 из 8 [2015 Военный WEB-DLRip] bober100 Скачать
1 | 1
Наши сериалы [ 7.51 GB ] Спутники / Серии: 1-8 из 8 [2015 Военный WEB-DL 720p] bober100 Скачать
1 | 0
Наши сериалы [ 4.89 GB ] Спутники / Серии: 1-8 из 8 [2015 Военный WEB-DLRip-AVC] bober100 Скачать
2 | 0
Наши сериалы [ 9.95 GB ] Спутники / Серии: 1-8 из 8 [2015 Военный HDTVRip 720p] bober100 Скачать
2 | 1
Наши сериалы [ 5.27 GB ] Спутники / Серии: 1-8 из 8 [2015 Военный HDTVRip] bober100 Скачать
2 | 0
Наши сериалы [ 21.67 GB ] Спутники / Серии: 1-8 из 8 [2015 Военный HDTV 1080i] bober100 Скачать
2 | 0
Наши фильмы (HD, WEB-DL 720p, 1080p) [ 3.96 GB ] Спутник [2020 WEB-DL 1080p] bober100 Скачать
8 | 0

28-11-2019 20:33  

Отключить всю рекламу на сайте

02-05-2020 16:26 Спутник Скачать торрент  

ох и кино прям чужие хахахахах!pb.wtf



02-05-2020 16:57 Спутник Скачать торрент  

Снова бондарчук шнягу снялpb.wtf



03-05-2020 17:26 Спутник Скачать торрент  

Маленько перемудрили, но в целом прям очень не плохо. Как любитель этого жанра говорю. И соплей многовато. Но мне Акиньшина нравится, поэтому смотрел все равно с удовольствием.pb.wtf



03-05-2020 18:48 Спутник Скачать торрент  

нормальный фильмpb.wtf



    Дорогой пользователь! Огромная просьба, поблагодарите релизера, оцените раздачу и оставьте свои комментарий, если Вы скачали Спутник через торрент бесплатно! Внесите свою лепту в развитие PiratBit!
    Комментировать посты могут только пользователи прошедшие не сложную регистрацию
    Показать сообщения:    

    Спутник через торрент
    Скачать бесплатно Спутник
    Спутник скачать торрент
    Спутник смотреть онлайн
    Cкачать фильм Спутник бесплатно
    Спутник скачать торрент в хорошем качестве
    Спутник смотреть онлайн бесплатно в хорошем качестве


    Вы не можете начинать темы
    Вы не можете отвечать на сообщения
    Вы не можете редактировать свои сообщения
    Вы не можете удалять свои сообщения
    Вы не можете голосовать в опросах
    Вы не можете прикреплять файлы к сообщениям
    Вы можете скачивать файлы