Ссылка на приватное зеркало нашего сайта всего за 1$. Внимание количество ограничено!!!

2 сезон

iTunes

1 сезон

1

2 сезон

2 сезон

iTunes

1 сезон

RePack

30

Ultimate

ВАЖНО

ИГРА 18+

pack

RePack

MK11
pack

Забери бонус

RePack

jed

!!Акция!!

Alien_Rage

RePack

fifa19

RePack

Assassins Creed: Odyssey

RePack

NEED FOR SPEED™ PAYBACK

4 сезон

9 сезон

Бесстыжие 9 сезон

Все сериалы

все сериалы на PB.wtf

RePack

FAR CRY 5
  

Хищные птицы: Потрясающая история Харли Квинн / Birds of Prey: And the Fantabulous Emancipation of One Harley Quinn (Кэти Янь) [2020, боевик, криминал, комедия, BD Remux 1080p] DUB (rus, ukr) [iTunes] +MVO [HDRezka Studio] pb.wtf

Хищные птицы: Потрясающая история Харли Квинн через торрент pb.wtf

Размер: 20.01 GB | Добавлен: 6 мес. назад | Торрент скачан:89 раз
Скачать  

02-05-2020 19:49 Хищные птицы: Потрясающая история Харли Квинн Скачать торрент  

Хищные птицы: Потрясающая история Харли Квинн |
Birds of Prey: And the Fantabulous Emancipation of One Harley Quinn

Год выпуска: 2020
Страна: США
Студия: Clubhouse Pictures (II), DC Entertainment, Kroll & Co. Entertainment
Жанр: боевик, криминал, комедия
Продолжительность: 01:48:54
Перевод:
#1: Дублированный | iTunes
#2: Профессиональный многоголосый | HDRezka Studio
Субтитры: Русские (Forced, Full), украинские (Forced), английские

Режиссер: Кэти Янь

rating

В ролях: Марго Робби, Джерни Смоллетт, Мэри Элизабет Уинстэд, Рози Перес, Элла Джей Баско, Юэн Макгрегор, Крис Мессина, Бояна Новакович, Али Вонг, Дэвид Ури

Описание: Харли Квинн рассталась с Джокером и через некоторое время сообщила об этом всему Готэму, взорвав тот самый химзавод. Девушка больше не тоскует по несостоявшимся отношениям — ей некогда, так как она также потеряла неприкосновенность, и теперь за ней охотятся разной степени криминализованности граждане, которым она когда-либо наносила вред. А в это время ставший крёстным отцом Готема Роман Сайонис очень жаждет вернуть пропавший бриллиант, который стащила у его подручного малолетняя карманница.

Качество: BD Remux 1080p
Формат: MKV

Видео: MPEG-4 AVC, 1920x1080, 20.9 Mbit/s, 23.976 fps
Аудио #01: 48 kHz, AC3, 5.1, 384 Kbps | iTunes | RUS |
Аудио #02: 48 kHz, AC3, 5.1, 448 Kbps | HDRezka Studio | RUS |
Аудио #03: 48 kHz, AC3, 2.0, 192 Kbps | iTunes | UKR |
Аудио #04: 48 kHz, TrueHD, 7.1, 3686 Kbps | Оригинал | ENG |
Аудио #05: 48 kHz, AC3, 5.1, 640 Kbps | Оригинал | ENG |
скриншот  скриншот  скриншот  скриншот  скриншот  

General
Unique ID : 204146969835883984851868447226870946003 (0x999546B6C40AFA6C0BC0F657433CD8D3)
Complete name : E:Video1111Birds.of.Prey.and.the.Fantabulous.Emancipation.of.One.Harley.Quinn.2020.D.MVO.BDREMUX.1080p.seleZen.mkv
Format : Matroska
Format version : Version 4
File size : 20.0 GiB
Duration : 1 h 48 min
Overall bit rate mode : Variable
Overall bit rate : 26.3 Mb/s
Movie name : Birds of Prey: And the Fantabulous Emancipation of One Harley Quinn 2020 from селезень
Encoded date : UTC 2020-05-02 19:35:56
Writing application : mkvmerge v40.0.0 ('Old Town Road + Pony') 64-bit
Writing library : libebml v1.3.9 + libmatroska v1.5.2

Video
ID : 1
Format : AVC
Format/Info : Advanced Video Codec
Format profile : High@L4.1
Format settings : CABAC / 4 Ref Frames
Format settings, CABAC : Yes
Format settings, Reference : 4 frames
Codec ID : V_MPEG4/ISO/AVC
Duration : 1 h 48 min
Bit rate mode : Variable
Bit rate : 20.9 Mb/s
Maximum bit rate : 33.0 Mb/s
Width : 1 920 pixels
Height : 1 080 pixels
Display aspect ratio : 16:9
Frame rate mode : Constant
Frame rate : 23.976 (24000/1001) FPS
Color space : YUV
Chroma subsampling : 4:2:0
Bit depth : 8 bits
Scan type : Progressive
Bits/(Pixel*Frame) : 0.420
Stream size : 15.9 GiB (79%)
Language : English
Default : Yes
Forced : No

Audio #1
ID : 2
Format : AC-3
Format/Info : Audio Coding 3
Commercial name : Dolby Digital
Codec ID : A_AC3
Duration : 1 h 48 min
Bit rate mode : Constant
Bit rate : 384 kb/s
Channel(s) : 6 channels
Channel layout : L R C LFE Ls Rs
Sampling rate : 48.0 kHz
Frame rate : 31.250 FPS (1536 SPF)
Compression mode : Lossy
Stream size : 299 MiB (1%)
Title : iTunes
Language : Russian
Service kind : Complete Main
Default : Yes
Forced : Yes

Audio #2
ID : 3
Format : AC-3
Format/Info : Audio Coding 3
Commercial name : Dolby Digital
Codec ID : A_AC3
Duration : 1 h 48 min
Bit rate mode : Constant
Bit rate : 448 kb/s
Channel(s) : 6 channels
Channel layout : L R C LFE Ls Rs
Sampling rate : 48.0 kHz
Frame rate : 31.250 FPS (1536 SPF)
Compression mode : Lossy
Stream size : 349 MiB (2%)
Title : HDRezka Studio
Language : Russian
Service kind : Complete Main
Default : No
Forced : No

Audio #3
ID : 4
Format : AC-3
Format/Info : Audio Coding 3
Commercial name : Dolby Digital
Codec ID : A_AC3
Duration : 1 h 48 min
Bit rate mode : Constant
Bit rate : 192 kb/s
Channel(s) : 2 channels
Channel layout : L R
Sampling rate : 48.0 kHz
Frame rate : 31.250 FPS (1536 SPF)
Compression mode : Lossy
Stream size : 150 MiB (1%)
Title : iTunes
Language : Ukrainian
Service kind : Complete Main
Default : No
Forced : No

Audio #4
ID : 5
Format : MLP FBA 16-ch
Format/Info : Meridian Lossless Packing FBA with 16-channel presentation
Commercial name : Dolby TrueHD with Dolby Atmos
Codec ID : A_TRUEHD
Duration : 1 h 48 min
Bit rate mode : Variable
Bit rate : 3 686 kb/s
Maximum bit rate : 6 912 kb/s
Channel(s) : 8 channels
Channel layout : L R C LFE Ls Rs Lb Rb
Sampling rate : 48.0 kHz
Frame rate : 1 200.000 FPS (40 SPF)
Compression mode : Lossless
Stream size : 2.80 GiB (14%)
Title : Original
Language : English
Default : No
Forced : No
Number of dynamic objects : 15
Bed channel count : 1 channel
Bed channel configuration : LFE

Audio #5
ID : 6
Format : AC-3
Format/Info : Audio Coding 3
Commercial name : Dolby Digital
Codec ID : A_AC3
Duration : 1 h 48 min
Bit rate mode : Constant
Bit rate : 640 kb/s
Channel(s) : 6 channels
Channel layout : L R C LFE Ls Rs
Sampling rate : 48.0 kHz
Frame rate : 31.250 FPS (1536 SPF)
Compression mode : Lossy
Stream size : 499 MiB (2%)
Language : English
Service kind : Complete Main
Default : No
Forced : No

Text #1
ID : 7
Format : UTF-8
Codec ID : S_TEXT/UTF8
Codec ID/Info : UTF-8 Plain Text
Duration : 1 h 41 min
Bit rate : 3 b/s
Count of elements : 53
Stream size : 2.42 KiB (0%)
Title : Forced
Language : Russian
Default : Yes
Forced : Yes

Text #2
ID : 8
Format : UTF-8
Codec ID : S_TEXT/UTF8
Codec ID/Info : UTF-8 Plain Text
Duration : 1 h 48 min
Bit rate : 91 b/s
Count of elements : 1335
Stream size : 72.8 KiB (0%)
Title : Full
Language : Russian
Default : No
Forced : No

Text #3
ID : 9
Format : UTF-8
Codec ID : S_TEXT/UTF8
Codec ID/Info : UTF-8 Plain Text
Duration : 1 h 47 min
Bit rate : 3 b/s
Count of elements : 55
Stream size : 2.72 KiB (0%)
Title : Forced
Language : Ukrainian
Default : No
Forced : No

Text #4
ID : 10
Format : UTF-8
Codec ID : S_TEXT/UTF8
Codec ID/Info : UTF-8 Plain Text
Duration : 1 h 48 min
Bit rate : 53 b/s
Count of elements : 1586
Stream size : 42.5 KiB (0%)
Title : Full
Language : English
Default : No
Forced : No

Text #5
ID : 11
Format : UTF-8
Codec ID : S_TEXT/UTF8
Codec ID/Info : UTF-8 Plain Text
Duration : 1 h 48 min
Bit rate : 75 b/s
Count of elements : 2100
Stream size : 59.8 KiB (0%)
Title : SDH
Language : English
Default : No
Forced : No

Menu
00:00:00.000 : en:Chapter 1
00:08:08.446 : en:Chapter 2
00:17:53.739 : en:Chapter 3
00:27:11.839 : en:Chapter 4
00:35:40.805 : en:Chapter 5
00:44:48.352 : en:Chapter 6
00:53:43.387 : en:Chapter 7
01:01:15.547 : en:Chapter 8
01:10:55.960 : en:Chapter 9
01:19:06.492 : en:Chapter 10
01:24:28.146 : en:Chapter 11
01:34:27.996 : en:Chapter 12
01:41:26.998 : en:Chapter 13

pb.wtf



Скачать Хищные птицы: Потрясающая история Харли Квинн через торрент https://i111.fastpic.ru/big/2020/0331/2c/a7a6141372191583117896a3fb25c42c.jpg Скачать фильм Хищные птицы: Потрясающая история Харли Квинн через торрент бесплантно в хорошем качестве Описание: Харли Квинн рассталась с Джокером и через некоторое время сообщила об этом всему Готэму, взорвав тот самый химзавод. Девушка ... 7.8 10 4
Торрент: Зарегистрирован [2020-05-02 19:49] · скачан: 89 раз
Статус: √ проверено
Размер: 20.01 GB
Как cкачать? Как скачать Хищные птицы: Потрясающая история Харли Квинн через торрент | qTorrent

% Раздел Тема Автор DL S | L
Фильмы (HD 720p, 1080p) (48-60 fps) [ 3.73 GB ] Хищные птицы: Потрясающая история Харли Квинн / Birds of Prey: And the Fantabulous Emancipation of One Harley Quinn [2020 BDRip 720p / 60 FPS ] от R.G. HD-Films slaventi-69 Скачать
6 | 1
Фильмы (HD 720p, 1080p) (48-60 fps) [ 3.34 GB ] Хищные птицы: Потрясающая история Харли Квинн / Birds of Prey: And the Fantabulous Emancipation of One Harley Quinn [2020 . BDRip 1080p / 60 FPS ] dd2d3 Скачать
2 | 0
Фильмы 2019-2020 [DVDrip, WEB-DLRip, HDrip] (DUB, MVO) [ 2.13 GB ] Хищные птицы: Потрясающая история Харли Квинн / Birds of Prey: And the Fantabulous Emancipation of One Harley Quinn [2020 BDRip] - Twi7ter Скачать
25 | 1
Ultra HD (UHD: 2K, 4K, 8K) — видео сверхвысокой чёткости [ 30.54 GB ] Хищные птицы: Потрясающая история Харли Квинн / Birds of Prey: And the Fantabulous Emancipation of One Harley Quinn [2020 UHD BDRip 2160p] DUB +MVO [HDRezka Studio] bober100 Скачать
2 | 0
Ultra HD (UHD: 2K, 4K, 8K) — видео сверхвысокой чёткости [ 52.95 GB ] Хищные птицы: Потрясающая история Харли Квинн / Birds of Prey: And the Fantabulous Emancipation of One Harley Quinn [2020 UHD BDRemux 2160p ] DUB +MVO [HDRezka Studio] bober100 Скачать
3 | 0
Ultra HD (UHD: 2K, 4K, 8K) — видео сверхвысокой чёткости [ 45.88 GB ] Хищные птицы: Потрясающая история Харли Квинн / Birds of Prey: And the Fantabulous Emancipation of One Harley Quinn [2020 UHD BDRemux 2160p ] bober100 Скачать
1 | 0
Ultra HD (UHD: 2K, 4K, 8K) — видео сверхвысокой чёткости [ 49.66 GB ] Хищные птицы: Потрясающая история Харли Квинн / Birds of Prey: And the Fantabulous Emancipation of One Harley Quinn [2020 UHD BDRemux 2160p] DUB +MVO [HDRezka Studio] bober100 Скачать
1 | 0

28-11-2019 20:33  

Отключить всю рекламу на сайте

    Дорогой пользователь! Огромная просьба, поблагодарите релизера, оцените раздачу и оставьте свои комментарий, если Вы скачали Хищные птицы: Потрясающая история Харли Квинн через торрент бесплатно! Внесите свою лепту в развитие PiratBit!
    Комментировать посты могут только пользователи прошедшие не сложную регистрацию
    Показать сообщения:    

    Хищные птицы: Потрясающая история Харли Квинн через торрент
    Скачать бесплатно Хищные птицы: Потрясающая история Харли Квинн
    Хищные птицы: Потрясающая история Харли Квинн скачать торрент
    Хищные птицы: Потрясающая история Харли Квинн смотреть онлайн
    Cкачать фильм Хищные птицы: Потрясающая история Харли Квинн бесплатно
    Хищные птицы: Потрясающая история Харли Квинн скачать торрент в хорошем качестве
    Хищные птицы: Потрясающая история Харли Квинн смотреть онлайн бесплатно в хорошем качестве


    Вы не можете начинать темы
    Вы не можете отвечать на сообщения
    Вы не можете редактировать свои сообщения
    Вы не можете удалять свои сообщения
    Вы не можете голосовать в опросах
    Вы не можете прикреплять файлы к сообщениям
    Вы можете скачивать файлы