Ссылка на приватное зеркало нашего сайта всего за 1$. Внимание количество ограничено!!!

2 сезон

iTunes

1 сезон

1

2 сезон

2 сезон

iTunes

1 сезон

RePack

30

Ultimate

ВАЖНО

ИГРА 18+

pack

RePack

MK11
pack

Забери бонус

RePack

jed

!!Акция!!

Alien_Rage

RePack

fifa19

RePack

Assassins Creed: Odyssey

RePack

NEED FOR SPEED™ PAYBACK

4 сезон

9 сезон

Бесстыжие 9 сезон

Все сериалы

все сериалы на PB.wtf

RePack

FAR CRY 5
  

Шугалей (Денис Нейманд) [2020, детектив, приключения, HDTVRip-AVC] pb.wtf

Шугалей через торрент pb.wtf

Раздают: 17 [ 3 KB/s ]
Размер: 1.39 GB | Добавлен: 6 мес. назад | Торрент скачан:395 раз
Скачать  

02-05-2020 20:21 Шугалей Скачать торрент  

Шугалей

«Русских не сломить»

Страна: Россия, Тунис
Жанр: детектив, приключения
Год выпуска: 2020
Продолжительность: 01:40:52

Перевод: Не требуется
Субтитры: нет
Оригинальная аудиодорожка: русский

Режиссер: Денис Нейманд

В ролях: Кирилл Полухин, Олег Абалян, Сергей Яценюк, Олег Метелев, Халед Хуисса, Мохамед Али Бен Джема

Описание: Российские социологи, Максим Шугалей и его спутник и переводчик Самер Суэйфан, отправляются в страну, разрываемую на части воинствующими группировками, по официальному приглашению. Их задача — проведение исследования, которое должно было бы положить конец боевым действиям. Однако в ходе работы в их руки попадает информация, которая может дорого стоить «марионеточному» правительству и не должна просочиться за пределы Ливии. В результате похищения русские специалисты оказываются в частной тюрьме и больше года, переживая пытки и унижения, ждут хотя бы официального обвинения. Дипломатические попытки мирно решить вопрос заходят в тупик, и российская сторона начинает готовить спасательную операцию.



Релиз:

Автор рипа: stalkerok

Сэмпл

Качество видео: HDTVRip-AVC | Исходник: HDTV 1080p nonstop2015
Формат видео: MKV
Видео кодек: AVC
Аудио кодек: AAC
Видео: AVC, 1846 Кбит/сек, 1076x450 (2.40:1), 25 кадр/сек
Аудио: AAC, 128 Кбит/сек, 44.1 КГц, 2.0 - русский
---[Information] [02.05.2020 22:29:21] x264 [info]: frame I:1480 Avg QP:14.45 size: 52666
---[Information] [02.05.2020 22:29:21] x264 [info]: frame P:37483 Avg QP:16.04 size: 18977
---[Information] [02.05.2020 22:29:21] x264 [info]: frame B:112358 Avg QP:19.61 size: 5409
---[Information] [02.05.2020 22:29:21] x264 [info]: consecutive B-frames: 2.8% 4.3% 14.2% 31.2% 13.5% 31.1% 1.7% 0.8% 0.3% 0.0% 0.0% 0.0% 0.0% 0.0% 0.1%

General
Unique ID : 78345839245422015097427998744234286729 (0x3AF0DC1AADD937CC3F2D6354C0A9DE89)
Complete name : C:\temp\Shugalei\Shugalei.2020.HDTVRip.x264.Rus.stalkerok.New-Team.mkv
Format : Matroska
Format version : Version 4
File size : 1.39 GiB
Duration : 1 h 40 min
Overall bit rate : 1 977 kb/s
Movie name : Шугалей (2020) | Rip by stalkerok
Encoded date : UTC 2020-05-02 19:42:13
Writing application : mkvmerge v46.0.0 ('No Deeper Escape') 64-bit
Writing library : libebml v1.3.10 + libmatroska v1.5.2

Video
ID : 1
Format : AVC
Format/Info : Advanced Video Codec
Format profile : High@L4.1
Format settings : CABAC / 12 Ref Frames
Format settings, CABAC : Yes
Format settings, Reference frames : 12 frames
Codec ID : V_MPEG4/ISO/AVC
Duration : 1 h 40 min
Bit rate : 1 846 kb/s
Width : 1 076 pixels
Height : 450 pixels
Display aspect ratio : 2.40:1
Frame rate mode : Constant
Frame rate : 25.000 FPS
Color space : YUV
Chroma subsampling : 4:2:0
Bit depth : 8 bits
Scan type : Progressive
Bits/(Pixel*Frame) : 0.153
Stream size : 1.30 GiB (93%)
Title : Шугалей (2020) | Rip by stalkerok
Writing library : x264 core 160 r3000 33f9e14
Encoding settings : cabac=1 / ref=12 / deblock=1:-2:-2 / analyse=0x3:0x133 / me=umh / subme=10 / psy=1 / psy_rd=1.00:0.00 / mixed_ref=1 / me_range=32 / chroma_me=1 / trellis=2 / 8x8dct=1 / cqm=0 / deadzone=21,11 / fast_pskip=0 / chroma_qp_offset=-2 / threads=12 / lookahead_threads=3 / sliced_threads=0 / nr=0 / decimate=1 / interlaced=0 / bluray_compat=0 / constrained_intra=0 / bframes=14 / b_pyramid=2 / b_adapt=2 / b_bias=0 / direct=3 / weightb=1 / open_gop=0 / weightp=2 / keyint=250 / keyint_min=25 / scenecut=40 / intra_refresh=0 / rc_lookahead=60 / rc=crf / mbtree=0 / crf=17.7 / qcomp=0.65 / qpmin=0 / qpmax=69 / qpstep=4 / vbv_maxrate=50000 / vbv_bufsize=62500 / crf_max=0.0 / nal_hrd=none / filler=0 / ip_ratio=1.40 / pb_ratio=1.30 / aq=3:0.80
Default : Yes
Forced : No

Audio
ID : 2
Format : AAC LC
Format/Info : Advanced Audio Codec Low Complexity
Codec ID : A_AAC-2
Duration : 1 h 40 min
Bit rate : 128 kb/s
Channel(s) : 2 channels
Channel layout : L R
Sampling rate : 44.1 kHz
Frame rate : 43.066 FPS (1024 SPF)
Compression mode : Lossy
Stream size : 92.4 MiB (6%)
Language : Russian
Default : Yes
Forced : No
pb.wtf



Скачать Шугалей через торрент http://i6.imageban.ru/out/2017/09/18/2ff75c0c358795c5946784cc1680714d.png Скачать фильм Шугалей через торрент бесплантно в хорошем качестве Описание: Российские социологи, Максим Шугалей и его спутник и переводчик Самер Суэйфан, отправляются в страну, разрываемую на части ... 8.6 10 14
Торрент: Зарегистрирован [2020-05-02 20:21] · скачан: 395 раз
Статус: √ проверено
Размер: 1.39 GB
Как cкачать? Как скачать Шугалей через торрент | qTorrent

% Раздел Тема Автор DL S | L
Наши фильмы (HD, WEB-DL 720p, 1080p) [ 3.07 GB ] Шугалей 2 [2020 HDTVRip 720p] bober100 Скачать
4 | 0
T Наши фильмы (HD, WEB-DL 720p, 1080p) [ 4.09 GB ] Шугалей 2 [2020 WEB-DL 1080p] bober100 Скачать
3 | 0
Наши новые фильмы 2020 - 2021 [ 1.47 GB ] Шугалей 2 [2020 WEB-DLRip] bober100 Скачать
1 | 0
Наши новые фильмы 2020 - 2021 [ 2.05 GB ] Шугалей 2 [2020 HDTVRip-AVC] bober100 Скачать
2 | 0
Наши новые фильмы 2020 - 2021 [ 1.46 GB ] Шугалей 2 [2020 HDTVRip] bober100 Скачать
5 | 0
Наши фильмы (HD, WEB-DL 720p, 1080p) [ 4.18 GB ] Шугалей 2 [2020 HDTV Оригинал] Бумер Скачать
2 | 0
Наши новые фильмы 2020 - 2021 [ 1.63 GB ] Шугалей 2 [2020 SATRip] Russian Mafia Скачать
2 | 0

28-11-2019 20:33  

Отключить всю рекламу на сайте

03-05-2020 07:34 Шугалей Скачать торрент  

От описания данного киношедевра упал под стол со смеху!)))pb.wtf



    Дорогой пользователь! Огромная просьба, поблагодарите релизера, оцените раздачу и оставьте свои комментарий, если Вы скачали Шугалей через торрент бесплатно! Внесите свою лепту в развитие PiratBit!
    Комментировать посты могут только пользователи прошедшие не сложную регистрацию
    Показать сообщения:    

    Шугалей через торрент
    Скачать бесплатно Шугалей
    Шугалей скачать торрент
    Шугалей смотреть онлайн
    Cкачать фильм Шугалей бесплатно
    Шугалей скачать торрент в хорошем качестве
    Шугалей смотреть онлайн бесплатно в хорошем качестве


    Вы не можете начинать темы
    Вы не можете отвечать на сообщения
    Вы не можете редактировать свои сообщения
    Вы не можете удалять свои сообщения
    Вы не можете голосовать в опросах
    Вы не можете прикреплять файлы к сообщениям
    Вы можете скачивать файлы