Ссылка на приватное зеркало всего за 1$. Внимание количество ограничено!!!

iTunes

iTunes

iTunes

1

iTunes

iTunes

iTunes

iTunes

iTunes

30
pack

$ от Little Big

ВАЖНО

!!Акция!!

Alien_RageХит недели

RePack

Resident Evil 21

ИГРА 18+

pack

RePack

jed

!!Акция!!

Alien_Rage

RePack

fifa19

RePack

Assassins Creed: Odyssey

RePack

NEED FOR SPEED™ PAYBACK

4 сезон

9 сезон

Бесстыжие 9 сезон

Все сериалы

все сериалы на PB.wtf

RePack

FAR CRY 5
  

Страшные сказки: Город ангелов / Penny Dreadful: City of Angels / Сезон: 1 / Серии: 1-10 из 10 (Пако Кабесас, Роксанн Доусон, Шери Фоксон) [2020, Ужасы, фэнтези, триллер, драма, WEB-DL 1080p] MVO [AlexFilm] pb.wtf

Страшные сказки: Город ангелов через торрент pb.wtf

Раздают: 1 [ 0 KB/s ]
Размер: 40.92 GB | Добавлен: 10 д. назад | Торрент скачан:12 раз
Скачать  

03-05-2020 05:24 Страшные сказки: Город ангелов Скачать торрент  

✘ Страшные сказки: Город ангелов | Penny Dreadful: City of Angels ✘
Год выпуска: 2020
Страна: США
Выпущено: Desert Wolf Productions
Жанр: Ужасы, фэнтези, триллер, драма
Продолжительность: ~ 01:08:00
Перевод: Профессиональный (многоголосый) | AlexFilm
Субтитры: Английские (SDH)

Режиссер: Пако Кабесас, Роксанн Доусон, Шери Фоксон

В ролях: Натали Дормер, Дэниэл Дзоватто, Адриана Барраса, Джессика Гарза, Джонатан Нивз, Рори Киннер, Натан Лэйн, Майкл Глэдис, Себастьян Чакон, Доминик Шервуд

Описание: Лос-Анджелес, 1938 год. Двум детективам поручают расследовать жестокое убийство, оно выводит их на масштабный заговор, в котором замешана элита города.

rating

Качество: WEB-DL 1080p
Формат: MKV

Видео: MPEG-4 AVC, 1920x1080 (16:9), 23.976 fps, ~ 9200 Kbps
Аудио №1: AC3, 48,0 kHz, 6 ch, 384 kbps | AlexFilm
Аудио №2: AC3, 48,0 kHz, 6 ch, 640 kbps | Original
скриншот  скриншот  скриншот  скриншот  

Complete name: D:Penny_Dreadful_City_of_Angels_(s01)_AlexFilm_1080pPenny.Dreadful.City.of.Angels.2020.S01E01.Santa.Muerte.1080p.AMZN.WEB-DL.DD5.1.x264-NTG_EniaHD.mkv
Format : Matroska
Format version : Version 2
File size : 4.93 GiB
Duration : 1 h 7 min
Overall bit rate : 10.4 Mb/s
Encoded date : UTC 2020-05-03 05:04:31
Writing application : mkvmerge v4.9.1 ('Ich will') сборка от Jul 11 2011 23:53:15
Writing library : libebml v1.2.1 + libmatroska v1.1.1

Video
ID : 1
Format : AVC
Format/Info : Advanced Video Codec
Format profile : High@L4
Format settings : CABAC / 4 Ref Frames
Format settings, CABAC : Yes
Format settings, Reference : 4 frames
Codec ID : V_MPEG4/ISO/AVC
Duration : 1 h 7 min
Bit rate mode : Constant
Bit rate : 9 158 kb/s
Nominal bit rate : 10 000 kb/s
Width : 1 920 pixels
Height : 1 080 pixels
Display aspect ratio : 16:9
Frame rate mode : Constant
Frame rate : 23.976 (24000/1001) FPS
Color space : YUV
Chroma subsampling : 4:2:0
Bit depth : 8 bits
Scan type : Progressive
Bits/(Pixel*Frame) : 0.184
Stream size : 4.35 GiB (88%)
Title : Release by EniaHD
Default : Yes
Forced : No
Color range : Limited
Color primaries : BT.709
Transfer characteristics : BT.709
Matrix coefficients : BT.709

Audio #1
ID : 2
Format : AC-3
Format/Info : Audio Coding 3
Commercial name : Dolby Digital
Codec ID : A_AC3
Duration : 1 h 7 min
Bit rate mode : Constant
Bit rate : 384 kb/s
Channel(s) : 6 channels
Channel layout : L R C LFE Ls Rs
Sampling rate : 48.0 kHz
Frame rate : 31.250 FPS (1536 SPF)
Compression mode : Lossy
Stream size : 187 MiB (4%)
Title : AlexFilm
Language : Russian
Service kind : Complete Main
Default : Yes
Forced : No

Audio #2
ID : 3
Format : AC-3
Format/Info : Audio Coding 3
Commercial name : Dolby Digital
Codec ID : A_AC3
Duration : 1 h 7 min
Bit rate mode : Constant
Bit rate : 640 kb/s
Channel(s) : 6 channels
Channel layout : L R C LFE Ls Rs
Sampling rate : 48.0 kHz
Frame rate : 31.250 FPS (1536 SPF)
Compression mode : Lossy
Stream size : 311 MiB (6%)
Language : English
Service kind : Complete Main
Default : No
Forced : No

Text
ID : 4
Format : UTF-8
Codec ID : S_TEXT/UTF8
Codec ID/Info : UTF-8 Plain Text
Title : SDH
Language : English
Default : No
Forced : No

Когда раздача ведётся путём добавления новых серий, при каждом добавлении создётся новый торрент. Чтобы начать докачку новой серии, пользователям необходимо сделать следующее:
(1) остановить скачивание,
(2) удалить старый торрент у себя из клиента (старые серии удалять не надо),
(3) скачать новый торрент и запустить его у себя в клиенте вместо старого, при этом указать клиенту путь в старую папку, куда и должно происходить скачивание новых серий.
Ваш клиент при этом должен произвести хеширование (проверку) старой папки (если не производит сам - помогите ему сделать это), и будет докачивать только те серии, которых у вас ещё нет. Старые серии при этом не удаляются, а продолжают раздаваться!
Eсли вы уже удалили старые серии, то предотвратить повторную закачку старых серий можно, отжав галочку в соответсвующих местах при запуске нового торрента. По возможности, желательно не удалять старые серии как можно дольше, чтобы релизер не столько продолжал раздавать старые серии, а смог сконцентрироваться на новых.
pb.wtf



Скачать Страшные сказки: Город ангелов через торрент https://b.radikal.ru/b38/2004/47/0c65c5efbc4c.jpg Скачать фильм Страшные сказки: Город ангелов через торрент бесплантно в хорошем качестве Описание: Лос-Анджелес, 1938 год. Двум детективам поручают расследовать жестокое убийство, оно выводит их на масштабный заговор, в котором ... 10 10 4
Торрент: Зарегистрирован [2020-07-01 17:30] · скачан: 12 раз
Статус: √ проверено
Размер: 40.92 GB
Как cкачать? Как скачать Страшные сказки: Город ангелов через торрент | qTorrent

% Раздел Тема Автор DL S | L
Зарубежные сериалы [ 9.52 GB ] Страшные сказки: Город ангелов / Penny Dreadful: City of Angels / Сезон: 1 / Серии: 1-10 из 10 [2020 WEB-DLRip] MVO [Amedia] Twi7ter Скачать
8 | 6
Зарубежные сериалы [ 5.57 GB ] Страшные сказки: Город ангелов / Penny Dreadful: City of Angels / Сезон: 1 / Серии: 1-7 из 10 [2020 WEB-DLRip] [MVO] killermax2013 Скачать
1 | 0
Зарубежные сериалы [ 40.92 GB ] Страшные сказки: Город ангелов / Penny Dreadful: City of Angels / Сезон: 1 / Серии: 1-10 из 10 [2020 WEBRip 1080p] MVO [LostFilm] bober100 Скачать
2 | 1
Зарубежные сериалы [ 62.59 GB ] Страшные сказки: Город ангелов / Penny Dreadful: City of Angels / Сезон: 1 / Серии: 1-10 из 10 [2020 UHD WEB-DL 2160p] 3xMVO bober100 Скачать
2 | 0
Зарубежные сериалы [ 20.6 GB ] Страшные сказки: Город ангелов / Penny Dreadful: City of Angels / Сезон: 1 / Серии: 1-10 из 10 [2020 WEB-DL 720p] MVO [LostFilm] bober100 Скачать
15 | 1
Зарубежные сериалы [ 7.06 GB ] Страшные сказки: Город ангелов / Penny Dreadful: City of Angels / Сезон: 1 / Серии: 1-9 из 10 [2020 WEB-DLRip] MVO [AlexFilm] bober100 Скачать
1 | 0
Зарубежные сериалы [ 20.6 GB ] Страшные сказки: Город ангелов / Penny Dreadful: City of Angels / Сезон: 1 / Серии: 1-10 из 10 [2020 WEB-DL 720p] MVO [AlexFilm] bober100 Скачать
2 | 1

28-11-2019 20:33  

Отключить всю рекламу на сайте

    Дорогой пользователь! Огромная просьба, поблагодарите релизера, оцените раздачу и оставьте свои комментарий, если Вы скачали Страшные сказки: Город ангелов через торрент бесплатно! Внесите свою лепту в развитие PiratBit!
    Комментировать посты могут только пользователи прошедшие не сложную регистрацию
    Показать сообщения:    

    Страшные сказки: Город ангелов через торрент
    Скачать бесплатно Страшные сказки: Город ангелов
    Страшные сказки: Город ангелов скачать торрент
    Страшные сказки: Город ангелов смотреть онлайн
    Cкачать фильм Страшные сказки: Город ангелов бесплатно
    Страшные сказки: Город ангелов скачать торрент в хорошем качестве
    Страшные сказки: Город ангелов смотреть онлайн бесплатно в хорошем качестве


    Вы не можете начинать темы
    Вы не можете отвечать на сообщения
    Вы не можете редактировать свои сообщения
    Вы не можете удалять свои сообщения
    Вы не можете голосовать в опросах
    Вы не можете прикреплять файлы к сообщениям
    Вы можете скачивать файлы