Всегда рабочее зеркало без VPN и Proxy просто перед .vidak.icu напиши любое слово или цифру, Пример http://x5hw.vidak.icu

MVO

2 сезон

1 сезон

1

1 сезон

iTunes

2 сезон

13

1 сезон

Распродажа

pack

Рекомендуем

Пиратка

30

ВАЖНО

RePack

MK11

RePack

jed

RePack

fifa19

RePack

RDR2

RePack

NEED FOR SPEED™ PAYBACK

Кинопоиск HD

6 сезон

 Острые козырьки 6 сезон

Все сериалы

все сериалы на PB.wtf

RePack

FAR CRY 5

Anonymous, нам критически не хватает 5601 руб. на оплату серверов и переферии за Апрель, помоги нам пожалуйста, вся надежда только на тебя. В благодарность мы отключим тебе всю рекламу на сайте!

×
  
Magnet ссылка

Ветераны зарубежных войн / VFW (Джо Бегос / Joe Begos) [2019, боевик, BDRemux 1080p] [AVO] (Гаевский) + [VO] (zamez) pb.wtf

Ветераны зарубежных войн через торрент pb.wtf

Размер: 19.54 GB | Добавлен: 2 года назад | Торрент скачан:26 раз
Смотреть онлайн Ветераны зарубежных войн | Скачать    Ребята, помогите собрать деньги на оплату серверов!!!

03-05-2020 14:22 Ветераны зарубежных войн Скачать торрент  

Ветераны зарубежных войн
VFW


Страна: США
Жанр: Боевик
Год выпуска: 2019
Продолжительность: 01:31:38
Перевод 1: Авторский (одноголосый закадровый) Е. Гаевский - ненормативная лексика
Перевод 2: Любительский (одноголосый закадровый) zamez
- ненормативная лексика
Субтитры: Русские Nerve33, английские, французские, испанские

Режиссер: Джо Бегос / Joe Begos

В ролях: Стивен Лэнг, Уильям Сэдлер, Фред Уильямсон, Мартин Коув, Дэвид Патрик Келли, Джордж Уэндт, Том Уильямсон, Сьерра Маккормик, Трэвис Хаммер, Дора Мэдисон

Описание: Группа пожилых ветеранов зарубежных войн собирается выпить в баре по поводу дня рождения одного из них — хоть именинник и против празднования, всё равно рад видеть старых друзей. Вдруг в заведение забегает девушка, а за ней и двое агрессивных громил. Встав на защиту незнакомки, дедули убивают преследователей, чем обращают на себя гнев местного барыги, у которого девушка стащила партию наркотиков. Теперь ошалевшие наркоманы начинают осаждать бар, а ветераны не прочь тряхнуть стариной и без боя сдаваться не собираются.



Тип релиза: BDRemux 1080p
Контейнер: MKV

Видео: MPEG-4 AVC, 1080p, 1920:1080 (16:9), 20992 kbps, 24.000 fps
Аудио 1: DTS-HD MA, 6 ch, 48 kHz, 4427 kbps, 24-bit (DTS Core 6 ch, 48 kHz, 1509 kbps, 24-bit) Русский Е. Гаевский
Аудио 2: AC3, 6 ch, 48 kHz, 640 kbps, 16 bits Русский zamez
Аудио 3: DTS-HD MA, 6 ch, 48 kHz, 4191 kbps, 24-bit (DTS Core 6 ch, 48 kHz, 1509 kbps, 24-bit) Английский
Аудио 4: AC3, 2 ch, 48 kHz, 192 kbps, 16 bits Английский Commentary with Director Joe Begos, Actor/Producer/Editor Josh Ethier, Associate Producer Brian E. Dutton
Аудио 5: AC3, 2 ch, 48 kHz, 192 kbps, 16 bits Английский Commentary with Director Joe Begos, Actor/Producer/Editor Josh Ethier, Associate Producer Brian E. Dutton and Special Make-up Effects Artists
Формат субтитров: SRT
Перевод доступен благодаря: Mednik, Ananerbe, Omen, Avatar-Lion, Bone, rmvk15, RafL, Loki1982, Литти, kokaino1987, 0nyx74, garik123, ivan_aka_flint, stimco, Seven7. Работа со звуком Переводман
General
Unique ID : 21130809570347424463657442867163999291 (0xFE5A5590D2D5CB2EF0761D06F48AC3B)
Complete name : G:\VFW.2019.REMUX.mkv
Format : Matroska
Format version : Version 4 / Version 2
File size : 19.5 GiB
Duration : 1 h 31 min
Overall bit rate mode : Variable
Overall bit rate : 30.5 Mb/s
Encoded date : UTC 2020-05-01 19:51:05
Writing application : mkvmerge v20.0.0 ('I Am The Sun') 64-bit
Writing library : libebml v1.3.5 + libmatroska v1.4.8

Video
ID : 1
Format : AVC
Format/Info : Advanced Video Codec
Format profile : High@L4.1
Format settings : CABAC / 4 Ref Frames
Format settings, CABAC : Yes
Format settings, RefFrames : 4 frames
Codec ID : V_MPEG4/ISO/AVC
Duration : 1 h 31 min
Bit rate mode : Variable
Bit rate : 20.9 Mb/s
Maximum bit rate : 36.0 Mb/s
Width : 1 920 pixels
Height : 1 080 pixels
Display aspect ratio : 16:9
Frame rate mode : Constant
Frame rate : 24.000 FPS
Color space : YUV
Chroma subsampling : 4:2:0
Bit depth : 8 bits
Scan type : Progressive
Bits/(Pixel*Frame) : 0.420
Stream size : 13.4 GiB (68%)
Language : English
Default : Yes
Forced : No

Audio #1
ID : 2
Format : DTS
Format/Info : Digital Theater Systems
Format profile : MA / Core
Codec ID : A_DTS
Duration : 1 h 31 min
Bit rate mode : Variable / Constant
Bit rate : 4 427 kb/s / 1 509 kb/s
Channel(s) : 6 channels
Channel positions : Front: L C R, Side: L R, LFE
Sampling rate : 48.0 kHz
Frame rate : 93.750 FPS (512 SPF)
Bit depth : 24 bits
Compression mode : Lossless / Lossy
Stream size : 2.83 GiB (14%)
Title : VO Gaevsky
Language : Russian
Default : Yes
Forced : No

Audio #2
ID : 3
Format : AC-3
Format/Info : Audio Coding 3
Codec ID : A_AC3
Duration : 1 h 31 min
Bit rate mode : Constant
Bit rate : 640 kb/s
Channel(s) : 6 channels
Channel positions : Front: L C R, Side: L R, LFE
Sampling rate : 48.0 kHz
Frame rate : 31.250 FPS (1536 SPF)
Bit depth : 16 bits
Compression mode : Lossy
Stream size : 419 MiB (2%)
Title : VO zamez
Language : Russian
Service kind : Complete Main
Default : No
Forced : No

Audio #3
ID : 4
Format : DTS
Format/Info : Digital Theater Systems
Format profile : MA / Core
Codec ID : A_DTS
Duration : 1 h 31 min
Bit rate mode : Variable / Constant
Bit rate : 4 191 kb/s / 1 509 kb/s
Channel(s) : 6 channels
Channel positions : Front: L C R, Side: L R, LFE
Sampling rate : 48.0 kHz
Frame rate : 93.750 FPS (512 SPF)
Bit depth : 24 bits
Compression mode : Lossless / Lossy
Stream size : 2.68 GiB (14%)
Language : English
Default : No
Forced : No

Audio #4
ID : 5
Format : AC-3
Format/Info : Audio Coding 3
Codec ID : A_AC3
Duration : 1 h 31 min
Bit rate mode : Constant
Bit rate : 192 kb/s
Channel(s) : 2 channels
Channel positions : Front: L R
Sampling rate : 48.0 kHz
Frame rate : 31.250 FPS (1536 SPF)
Bit depth : 16 bits
Compression mode : Lossy
Stream size : 126 MiB (1%)
Title : Commentary
Language : English
Service kind : Complete Main
Default : No
Forced : No

Audio #5
ID : 6
Format : AC-3
Format/Info : Audio Coding 3
Codec ID : A_AC3
Duration : 1 h 31 min
Bit rate mode : Constant
Bit rate : 192 kb/s
Channel(s) : 2 channels
Channel positions : Front: L R
Sampling rate : 48.0 kHz
Frame rate : 31.250 FPS (1536 SPF)
Bit depth : 16 bits
Compression mode : Lossy
Stream size : 126 MiB (1%)
Title : Commentary
Language : English
Service kind : Complete Main
Default : No
Forced : No

Text #1
ID : 7
Format : UTF-8
Codec ID : S_TEXT/UTF8
Codec ID/Info : UTF-8 Plain Text
Duration : 1 h 27 min
Bit rate : 81 b/s
Count of elements : 1170
Stream size : 52.6 KiB (0%)
Title : Nerve33
Language : Russian
Default : No
Forced : No

Text #2
ID : 8
Format : UTF-8
Codec ID : S_TEXT/UTF8
Codec ID/Info : UTF-8 Plain Text
Duration : 1 h 25 min
Bit rate : 53 b/s
Count of elements : 1213
Stream size : 33.9 KiB (0%)
Language : English
Default : No
Forced : No

Text #3
ID : 9
Format : UTF-8
Codec ID : S_TEXT/UTF8
Codec ID/Info : UTF-8 Plain Text
Duration : 1 h 26 min
Bit rate : 51 b/s
Count of elements : 1241
Stream size : 32.8 KiB (0%)
Language : French
Default : No
Forced : No

Text #4
ID : 10
Format : UTF-8
Codec ID : S_TEXT/UTF8
Codec ID/Info : UTF-8 Plain Text
Duration : 1 h 26 min
Bit rate : 48 b/s
Count of elements : 1213
Stream size : 31.1 KiB (0%)
Language : Spanish
Default : No
Forced : No

Menu
00:00:00.000 : en:Chapter 01
00:12:05.291 : en:Chapter 02
00:22:05.125 : en:Chapter 03
00:31:57.416 : en:Chapter 04
00:42:59.208 : en:Chapter 05
00:53:47.541 : en:Chapter 06
01:07:19.625 : en:Chapter 07
01:27:39.041 : en:Chapter 08
скриншот  скриншот  скриншот  
pb.wtf



Скачать Ветераны зарубежных войн через торрент https://i111.fastpic.ru/big/2020/0501/60/7cfa3d22082622a0e493d08aac840060.jpg Скачать, смотреть онлайн Ветераны зарубежных войн бесплантно в хорошем качестве Описание: Группа пожилых ветеранов зарубежных войн собирается выпить в баре по поводу дня рождения одного из них — хоть именинник и против ... 8.8 10 4
Торрент: Зарегистрирован [2020-05-03 14:22] · скачан: 26 раз
Статус: T временная
Размер: 19.54 GB
Как cкачать? Как скачать Ветераны зарубежных войн через торрент | UTorrent

% Раздел Тема Автор DL S | L
Фильмы 2019-2020 [DVDrip, WEB-DLRip, HDrip] (DUB, MVO) [ 1.42 GB ] Ветераны зарубежных войн / VFW [2019 BDRip] MVO Twi7ter Скачать
1 | 0
Фильмы 2019-2020 [DVDrip, WEB-DLRip, HDrip] (DUB, MVO) [ 1.46 GB ] Ветераны зарубежных войн / VFW [2019 BDRip] [MVO] killermax2013 Скачать
1 | 0
Фильмы [HD 720p, 1080p] (Хороший звук DUB, MVO) [ 4.28 GB ] Ветераны зарубежных войн / VFW [2019 BDRip 1080p] [MVO] killermax2013 Скачать
1 | 0
Фильмы с авторской озвучкой [ 1.46 GB ] Ветераны зарубежных войн / VFW [2019 BDRip] AVO [Гаевский] Twi7ter Скачать
1 | 0

28-11-2019 20:33  

Отключить всю рекламу на сайте

    Дорогой пользователь! Огромная просьба, поблагодарите релизера, оцените раздачу и оставьте свои комментарий, если Вы скачали Ветераны зарубежных войн через торрент бесплатно!
    Комментировать посты могут только пользователи прошедшие не сложную регистрацию
    Показать сообщения:    

    Ветераны зарубежных войн через торрент
    Скачать бесплатно Ветераны зарубежных войн
    Ветераны зарубежных войн скачать торрент
    Ветераны зарубежных войн смотреть онлайн
    Cкачать фильм Ветераны зарубежных войн бесплатно
    Ветераны зарубежных войн скачать торрент в хорошем качестве
    Ветераны зарубежных войн смотреть онлайн бесплатно в хорошем качестве


    Вы не можете начинать темы
    Вы не можете отвечать на сообщения
    Вы не можете редактировать свои сообщения
    Вы не можете удалять свои сообщения
    Вы не можете голосовать в опросах
    Вы не можете прикреплять файлы к сообщениям
    Вы можете скачивать файлы