2 сезон

iTunes

MVO

1

2 сезон

iTunes

iTunes

1 сезон

RePack

30

Новинка

ВАЖНО

ИГРА 18+

pack

RePack

MK11
pack

Легкие деньги

RePack

jed

RePack

fifa19

RePack

RDR2

RePack

NEED FOR SPEED™ PAYBACK

4 сезон

9 сезон

Бесстыжие 9 сезон

Все сериалы

все сериалы на PB.wtf

RePack

FAR CRY 5

Anonymous, добрый вечер, мы не успеваем собрать деньги на оплату серверов за декабрь и январь, помогите нам пожалуйста в это трудное время. В качестве благодарности мы отключим Вам всю рекламу на сайте (укажите свой ник в строку Ваше имя)!

×
  
Magnet ссылка

Десять Ярдов / The Whole Ten Yards (Ховард Дойч) [2004 г., Комедия, BDRip 720p / 60 FPS, Дубляж] pb.wtf

Десять Ярдов через торрент pb.wtf

Размер: 3.06 GB | Добавлен: 8 мес. назад | Торрент скачан:26 раз
Скачать  

04-05-2020 01:10 Десять Ярдов Скачать торрент  

Десять Ярдов / The Whole Ten Yards
Год выпуска: 2004
Страна: США
Жанр: Комедия
Продолжительность: 01:38:33
Перевод: Дубляж
Субтитры: русские

Режиссер: Ховард Дойч

В ролях: Брюс Уиллис, Мэттью Перри, Аманда Пит, Кевин Поллак, Наташа Хенстридж, Фрэнк Коллисон, Джонни Месснер, Сайлас Уэйр Митчелл, Таша Смит, Элиза Галлай

Описание: Множество неприятностей происходит в жизни нашего любимого дантиста из Беверли Хиллз, Николаса Озерански. Хорошая новость — то что его жена Синтия беременна. А плохая новость? Его одолела паранойя… Известный главарь венгерской мафии Лазло вышел из тюрьмы и хочет вернуть деньги, которые Озз и Джими-Тюльпан увели у него из под носа. Лазло пойдет на всё, чтобы вернуть свои деньги, и для этой цели он похищает беременную Синтию… История закручивается всё сильней и сильней, но это же всего лишь один день из жизни наших героев…

Качество: BDRip 720p / 60 FPS
Формат: MKV
Видео кодек: H.264
Аудио кодек: AC3
Видео: x264, 1280 x 720 ( 16:9 ), 4000 kbps, 60,000 fps, ( 0.072 bpp)
Аудио#1: Русский, AC-3, 48.0 KHz, 6 ch, 448 Kbps
скриншот   скриншот   скриншот   скриншот  

Общее
Уникальный идентификатор : 211419380750448138985597042363382750385 (0x9F0DE44147F17ABC8CBB5A55434DDCB1)
Полное имя : Z:\На заливку\10 ярдов. BDRip.720p.(60Fps).mkv
Формат : Matroska
Версия формата : Version 4
Размер файла : 3,06 Гбайт
Продолжительность : 1 ч. 38 м.
Общий поток : 4 449 Кбит/сек
Название фильма : 10 ярдов. BDRip.720p.(60Fps)
Дата кодирования : UTC 2020-04-28 18:04:56
Программа кодирования : mkvmerge v7.2.0 ('On Every Street') 64bit built on Sep 13 2014 15:52:10
Библиотека кодирования : libebml v1.3.0 + libmatroska v1.4.1

Видео
Идентификатор : 1
Формат : AVC
Формат/Информация : Advanced Video Codec
Профиль формата : High@L4.1
Настройки формата : CABAC / 4 Ref Frames
Параметр CABAC формата : Да
Параметр RefFrames формата : 4 кадра
Идентификатор кодека : V_MPEG4/ISO/AVC
Продолжительность : 1 ч. 38 м.
Битрейт : 4 000 Кбит/сек
Ширина : 1 280 пикселей
Высота : 720 пикселей
Соотношение сторон : 16:9
Режим частоты кадров : Постоянный
Частота кадров : 60,000 кадров/сек
Цветовое пространство : YUV
Субдискретизация насыщенности : 4:2:0
Битовая глубина : 8 бит
Тип развёртки : Прогрессивная
Бит/(Пиксели*Кадры) : 0.072
Размер потока : 2,75 Гбайт (90%)
Библиотека кодирования : x264 core 148 r2638 7599210
Настройки программы : cabac=1 / ref=3 / deblock=1:0:0 / analyse=0x3:0x113 / me=umh / subme=9 / psy=1 / psy_rd=1.00:0.10 / mixed_ref=1 / me_range=32 / chroma_me=1 / trellis=2 / 8x8dct=1 / cqm=0 / deadzone=21,11 / fast_pskip=0 / chroma_qp_offset=-3 / threads=6 / lookahead_threads=1 / sliced_threads=0 / nr=0 / decimate=1 / interlaced=0 / bluray_compat=0 / constrained_intra=0 / bframes=16 / b_pyramid=2 / b_adapt=2 / b_bias=0 / direct=3 / weightb=1 / open_gop=0 / weightp=2 / keyint=250 / keyint_min=25 / scenecut=40 / intra_refresh=0 / rc_lookahead=40 / rc=2pass / mbtree=1 / bitrate=4000 / ratetol=1.0 / qcomp=0.60 / qpmin=0 / qpmax=69 / qpstep=4 / cplxblur=20.0 / qblur=0.5 / vbv_maxrate=14000 / vbv_bufsize=14000 / nal_hrd=none / filler=0 / ip_ratio=1.40 / aq=1:1.00
Язык : English
Default : Да
Forced : Нет

Аудио
Идентификатор : 2
Формат : AC-3
Формат/Информация : Audio Coding 3
Коммерческое название : Dolby Digital
Идентификатор кодека : A_AC3
Продолжительность : 1 ч. 38 м.
Вид битрейта : Постоянный
Битрейт : 448 Кбит/сек
Каналы : 6 каналов
Channel layout : L R C LFE Ls Rs
Частота : 48,0 КГц
Частота кадров : 31,250 кадров/сек (1536 SPF)
Метод сжатия : С потерями
Размер потока : 316 Мбайт (10%)
Заголовок : DUB
Язык : Russian
Service kind : Complete Main
Default : Да
Forced : Нет

Текст
Идентификатор : 3
Формат : UTF-8
Идентификатор кодека : S_TEXT/UTF8
Идентификатор кодека/Информация : UTF-8 Plain Text
Продолжительность : 1 ч. 33 м.
Битрейт : 139 бит/сек
Count of elements : 1625
Размер потока : 96,1 Кбайт (0%)
Язык : Russian
Default : Да
Forced : Нет

pb.wtf



Скачать Десять Ярдов через торрент http://pic1.kartinco.top/images/12/njg2n.jpg Скачать фильм Десять Ярдов через торрент бесплантно в хорошем качестве Описание: Множество неприятностей происходит в жизни нашего любимого дантиста из Беверли Хиллз, Николаса Озерански. Хорошая новость — то ... 10 10 4
Торрент: Зарегистрирован [2020-05-04 01:10] · скачан: 26 раз
Статус: √ проверено
Размер: 3.06 GB
Как cкачать? Как скачать Десять Ярдов через торрент | UTorrent

% Раздел Тема Автор DL S | L
Фильмы 2001-2005 [ 1.45 GB ] Десять Ярдов / Девять Ярдов 2 / The Whole Ten Yards [2004 DVDRip-AVC лицензия] KedRxxx Скачать
1 | 0


Последний раз редактировалось: alien2015 (2020-05-08 09:51), всего редактировалось 5 раз(а)

28-11-2019 20:33  

Отключить всю рекламу на сайте

    Дорогой пользователь! Огромная просьба, поблагодарите релизера, оцените раздачу и оставьте свои комментарий, если Вы скачали Десять Ярдов через торрент бесплатно! Внесите свою лепту в развитие PiratBit!
    Комментировать посты могут только пользователи прошедшие не сложную регистрацию
    Показать сообщения:    

    Десять Ярдов через торрент
    Скачать бесплатно Десять Ярдов
    Десять Ярдов скачать торрент
    Десять Ярдов смотреть онлайн
    Cкачать фильм Десять Ярдов бесплатно
    Десять Ярдов скачать торрент в хорошем качестве
    Десять Ярдов смотреть онлайн бесплатно в хорошем качестве


    Вы не можете начинать темы
    Вы не можете отвечать на сообщения
    Вы не можете редактировать свои сообщения
    Вы не можете удалять свои сообщения
    Вы не можете голосовать в опросах
    Вы не можете прикреплять файлы к сообщениям
    Вы можете скачивать файлы