Достать ножи: Стеклянная луковица

MVO

Добыча

Дубляж

Уэнсдэй

1 сезон

Тор

Дубляж

13 клиническая

1 сезон

Жестокая ночь

MVO

Одни из нас

1 сезон

Deluxe

pack

Рекомендуем

30

Пиратка

ВАЖНО

ВАЖНО

Ghostwire

Пиратка

jed

RePack

nioh2

RePack

RDR2

RePack

NEED FOR SPEED™ PAYBACK

RePack

скачать торрент

Кинопоиск HD

Острые козырьки 6 сезон

6 сезон

FAR CRY 6

RePack

скачать торрент

Лицензия

скачать торрент

MVO

1

1 сезон

скачать торрент

1 сезон

скачать торрент

Лицензия

  

Александр / Alexander (Оливер Стоун) [2004, боевик, драма, мелодрама, приключения, военный, биография, история, BDRip 720p / 60 FPS (Дубляж Мосфильм со вставками Юрия Немахова)][Revisited: The Final Cut]

Александр через торрент pb.wtf

Раздают: 2 [ 0 KB/s ] Качают: 1 [ 0 KB/s ]
Размер: 6.64 GB | Добавлен: 3 д. назад | Торрент скачан:25 раз
Смотреть онлайн | Скачать | Поддержите нас   

04-05-2020 01:28 Александр Скачать торрент  

Александр / Alexander
(Режиссёрская версия)

Год выпуска: 2004
Страна: Германия, США, Нидерланды, Франция, Великобритания, Италия
Жанр: боевик, драма, мелодрама, приключения, военный, биография, история
Продолжительность: 03:33:37
Перевод: Дублированный Мосфильм со вставками Юрия Немахова
Субтитры: русские

Режиссер: Оливер Стоун

В ролях: Колин Фаррелл (Alexander), Анджелина Джоли (Olympias), Вэл Килмер (Philip), Джаред Лето (Hephaistion), Энтони Хопкинс (Old Ptolemy), Джонатан Риз Майерс (Cassander), Розарио Доусон (Roxane), Кристофер Пламмер (Aristotle), Дэвид Беделла (Scribe), Джесси Камм (Child Alexander), Фиона О’Шонесси (Nurse), Коннор Паоло (Young Alexander)

Описание: Спустя 40 лет после гибели Александра пожилой Птолемей, один из ближайших соратников Македонского, ставший после его смерти наместником Египта, решает рассказать и записать историю побед великого полководца. В течение восьми лет войско Александра Великого двигалось на Восток, к берегам мирового Океана.

Покорив Западную и Центральную Азию, Македонский первым ступил на загадочную и таинственную землю древней Индии. Об этом он мечтал ещё в детстве, слушая мифы о Трое, подвигах Геракла и Ахиллеса…

Качество: BDRip 720p / 60 FPS
Формат: MKV
Видео кодек: H.264
Аудио кодек: AC3
Видео: x264, 1280 x 532 ( 2,40:1 ), 4000 kbps, 59,940 fps, ( 0.099 bpp)
Аудио#1: русский, AC3, 448 kbps, 6 ch, 48 kHz Дублированный Мосфильм со вставками Юрия Немахова
rating
скриншот   скриншот   скриншот   скриншот  

Общее
Уникальный идентификатор : 221788552270771436061594174333822036259 (0xA6DAEBE1CAA9E9DFA79668D13471E923)
Полное имя : Z:\На заливку\Александр. BDRip.720p.(60Fps).mkv
Формат : Matroska
Версия формата : Version 4
Размер файла : 6,63 Гбайт
Продолжительность : 3 ч. 33 м.
Общий поток : 4 445 Кбит/сек
Название фильма : Александр. BDRip.720p.(60Fps)
Дата кодирования : UTC 2020-04-30 19:25:56
Программа кодирования : mkvmerge v7.2.0 ('On Every Street') 64bit built on Sep 13 2014 15:52:10
Библиотека кодирования : libebml v1.3.0 + libmatroska v1.4.1
Обложка : Yes
Attachments : cover1.jpg

Видео
Идентификатор : 1
Формат : AVC
Формат/Информация : Advanced Video Codec
Профиль формата : [email protected]
Настройки формата : CABAC / 4 Ref Frames
Параметр CABAC формата : Да
Параметр RefFrames формата : 4 кадра
Идентификатор кодека : V_MPEG4/ISO/AVC
Продолжительность : 3 ч. 33 м.
Битрейт : 4 000 Кбит/сек
Ширина : 1 280 пикселей
Высота : 532 пикселей
Соотношение сторон : 2,40:1
Режим частоты кадров : Постоянный
Частота кадров : 59,940 кадров/сек
Цветовое пространство : YUV
Субдискретизация насыщенности : 4:2:0
Битовая глубина : 8 бит
Тип развёртки : Прогрессивная
Бит/(Пиксели*Кадры) : 0.099
Размер потока : 5,96 Гбайт (90%)
Библиотека кодирования : x264 core 148 r2638 7599210
Настройки программы : cabac=1 / ref=3 / deblock=1:0:0 / analyse=0x3:0x113 / me=umh / subme=9 / psy=1 / psy_rd=1.00:0.10 / mixed_ref=1 / me_range=32 / chroma_me=1 / trellis=2 / 8x8dct=1 / cqm=0 / deadzone=21,11 / fast_pskip=0 / chroma_qp_offset=-3 / threads=6 / lookahead_threads=1 / sliced_threads=0 / nr=0 / decimate=1 / interlaced=0 / bluray_compat=0 / constrained_intra=0 / bframes=16 / b_pyramid=2 / b_adapt=2 / b_bias=0 / direct=3 / weightb=1 / open_gop=0 / weightp=2 / keyint=250 / keyint_min=25 / scenecut=40 / intra_refresh=0 / rc_lookahead=40 / rc=2pass / mbtree=1 / bitrate=4000 / ratetol=1.0 / qcomp=0.60 / qpmin=0 / qpmax=69 / qpstep=4 / cplxblur=20.0 / qblur=0.5 / vbv_maxrate=14000 / vbv_bufsize=14000 / nal_hrd=none / filler=0 / ip_ratio=1.40 / aq=1:1.00
Язык : English
Default : Да
Forced : Нет

Аудио
Идентификатор : 2
Формат : AC-3
Формат/Информация : Audio Coding 3
Коммерческое название : Dolby Digital
Идентификатор кодека : A_AC3
Продолжительность : 3 ч. 33 м.
Вид битрейта : Постоянный
Битрейт : 448 Кбит/сек
Каналы : 6 каналов
Channel layout : L R C LFE Ls Rs
Частота : 48,0 КГц
Частота кадров : 31,250 кадров/сек (1536 SPF)
Метод сжатия : С потерями
Размер потока : 684 Мбайт (10%)
Заголовок : Дубляж Мосфильм со вставками Юрия Немахова
Язык : Russian
Service kind : Complete Main
Default : Да
Forced : Нет

Текст #1
Идентификатор : 3
Формат : UTF-8
Идентификатор кодека : S_TEXT/UTF8
Идентификатор кодека/Информация : UTF-8 Plain Text
Продолжительность : 3 ч. 16 м.
Битрейт : 16 бит/сек
Count of elements : 407
Размер потока : 24,1 Кбайт (0%)
Заголовок : русские на места без перевода и надписи
Язык : Russian
Default : Да
Forced : Да

Текст #2
Идентификатор : 4
Формат : UTF-8
Идентификатор кодека : S_TEXT/UTF8
Идентификатор кодека/Информация : UTF-8 Plain Text
Продолжительность : 3 ч. 23 м.
Битрейт : 86 бит/сек
Count of elements : 2088
Размер потока : 130 Кбайт (0%)
Заголовок : русские
Язык : Russian
Default : Нет
Forced : Нет

Меню
00:00:00.000 : :Chapter 1
00:12:35.629 : :Chapter 2
00:16:04.171 : :Chapter 3
00:35:49.397 : :Chapter 4
00:43:58.719 : :Chapter 5
00:54:49.703 : :Chapter 6
01:00:47.935 : :Chapter 7
01:08:47.331 : :Chapter 8
01:19:40.609 : :Chapter 9
01:32:57.029 : :Chapter 10
01:41:57.152 : :Chapter 11
01:48:47.938 : :Chapter 12
01:57:50.897 : :Chapter 13
02:06:28.038 : :Chapter 14
02:16:47.449 : :Chapter 15
02:29:00.389 : :Chapter 16
02:40:45.427 : :Chapter 17
02:47:52.520 : :Chapter 18
02:57:10.453 : :Chapter 19
03:07:49.633 : :Chapter 20
03:16:12.761 : :Chapter 21
03:25:22.810 : :Chapter 22




Скачать Александр через торрент https://pic1.kartinco.top/images/12/mg4mm.jpg Скачать, смотреть онлайн Александр бесплантно в хорошем качестве Описание: Спустя 40 лет после гибели Александра пожилой Птолемей, один из ближайших соратников Македонского, ставший после его смерти ... 10 10 2
Торрент: Зарегистрирован [2023-01-23 09:58] · скачан: 25 раз
Статус: не проверено
Размер: 6.64 GB
Как cкачать? Как скачать Александр через торрент | UTorrent

% Раздел Тема Автор DL S | L
Фильмы [HD 720p, 1080p] (Хороший звук DUB, MVO) [ 23.64 GB ] Александр / Alexander | DUB | 1080p msltel Скачать
1 | 0
Фильмы [HD 720p, 1080p] (Хороший звук DUB, MVO) [ 9.99 GB ] Александр / Alexander | DUB | 720p msltel Скачать
1 | 0
Фильмы (HD 720p, 1080p) (48-60 fps) [ 23.65 GB ] Александр / Alexander | осый | 1080p / 60 FPS, The Final Cut, Авторский (одноголосый Tiberiumsun69 Скачать
1 | 0
Фильмы 2001-2005 [ 1.47 GB ] Александр / Alexander | | BDRip, лицензия Luck_Max Скачать
1 | 1
Фильмы (Blu-ray, BD-Remux, HDDVD) [ 24.17 GB ] Александр / Alexander | | 1080p diletant Скачать
1 | 0



Последний раз редактировалось: alien2015 (2020-05-29 15:05), всего редактировалось 29 раз(а)

28-11-2019 20:33  


Отключить вcю реклaмy на сайте, в т.ч. и в плеере онлайн просмотра!

    Дорогой пользователь! Огромная просьба, поблагодарите релизера, оцените раздачу и оставьте свои комментарий, если Вы скачали Александр через торрент бесплатно!!
    Комментировать посты могут только пользователи прошедшие не сложную регистрацию
    Показать сообщения:    


    Александр через торрент
    Скачать бесплатно Александр
    Александр скачать торрент
    Александр смотреть онлайн
    Cкачать фильм Александр бесплатно
    Александр скачать торрент в хорошем качестве
    Александр смотреть онлайн бесплатно в хорошем качестве
    Вы не можете начинать темы
    Вы не можете отвечать на сообщения
    Вы не можете редактировать свои сообщения
    Вы не можете удалять свои сообщения
    Вы не можете голосовать в опросах
    Вы не можете прикреплять файлы к сообщениям
    Вы можете скачивать файлы
    Александр / Alexander [2004, боевик, драма, мелодрама, приключения, военный, биография, история, BDRip 720p / 60 FPS ][Revisited: The Final Cut] смотреть онлайн, скачать торрент picoco.icu