Ссылка на приватное зеркало всего за 1$. Внимание количество ограничено!!!

iTunes

iTunes

iTunes

1

iTunes

iTunes

iTunes

iTunes

iTunes

30
pack

$ от Little Big

ВАЖНО

!!Акция!!

Alien_RageХит недели

RePack

Resident Evil 21

ИГРА 18+

pack

RePack

jed

!!Акция!!

Alien_Rage

RePack

fifa19

RePack

Assassins Creed: Odyssey

RePack

NEED FOR SPEED™ PAYBACK

4 сезон

9 сезон

Бесстыжие 9 сезон

Все сериалы

все сериалы на PB.wtf

RePack

FAR CRY 5
  

Человек-дьявол: Пробуждение / Devilman: The Birth (Иида Цутому) [1987, фантастика, ужасы, BDRip 1080p, (60Fps)] VO [Лурье] pb.wtf

Человек-дьявол: Пробуждение через торрент pb.wtf

Раздают: 4 [ 0 KB/s ]
Размер: 1.51 GB | Добавлен: 28 д. назад | Торрент скачан:40 раз
Скачать  

04-05-2020 03:09 Человек-дьявол: Пробуждение Скачать торрент  

Человек-дьявол: Пробуждение / Devilman: The Birth
Год выпуска: 1987
Страна: Япония
Жанр: фантастика, ужасы
Продолжительность: 00:50:48
Перевод: Любительский одноголосый | Лурье
Субтитры: русские, английские

Режиссер: Иида Цутому

В ролях: Акира, Рюу, Мики

Описание: Акира — ничем не примечательный подросток, живущий в современном Токио. Однако его размеренное существование нарушается с появлением друга детства Рюу. Акира узнает от него, что в ближайшем будущем грядет война с демонами и именно ему предстоит сразится за судьбу человечества. Единственный шанс победить — самому превратится в демона и тем самым получить сверхъестественную силу. Для этого друзьям предстоит пройти через зловещий ритуал призыва темных сил.

Качество: BDRip 1080p / 60 FPS
Формат: MKV

Видео: x264, 1436x1078 ( 4:3 ), 4000 kbps, 59,940 fps, ( 0.043 bpp)
Аудио#1: Русский, AC-3, 48.0 KHz, 6 ch, 256 Kbps ( VO Лурье (поверх англ. дубляжа!) )
скриншот   скриншот   скриншот  

Общее
Уникальный идентификатор : 251750099531621982958699814984748464056 (0xBD654E367EF4C1E58F394FAD3D6577B8)
Полное имя : Z:\На заливку\Человек Дьявол. Пробуждение BDRip.720p.(60Fps).mkv
Формат : Matroska
Версия формата : Version 4
Размер файла : 1,51 Гбайт
Продолжительность : 51 м. 17 с.
Общий поток : 4 224 Кбит/сек
Название фильма : Человек Дьявол. Пробуждение BDRip.720p.(60Fps)
Дата кодирования : UTC 2020-05-02 06:07:18
Программа кодирования : mkvmerge v7.2.0 ('On Every Street') 64bit built on Sep 13 2014 15:52:10
Библиотека кодирования : libebml v1.3.0 + libmatroska v1.4.1
Attachments : a_Latino.ttf / DS VTCorona Cyr.ttf / Heinrich Text.ttf / NeutraText-LightAlt.otf / QuaySansMdITCTT.ttf / ufonts.com_gill-sans.ttf / ufonts.com_gillsans-italic.ttf

Видео
Идентификатор : 1
Формат : AVC
Формат/Информация : Advanced Video Codec
Профиль формата : High@L4.1
Настройки формата : CABAC / 8 Ref Frames
Параметр CABAC формата : Да
Параметр RefFrames формата : 8 кадров
Идентификатор кодека : V_MPEG4/ISO/AVC
Продолжительность : 50 м. 48 с.
Битрейт : 4 000 Кбит/сек
Ширина : 1 436 пикселей
Высота : 1 078 пикселей
Соотношение сторон : 4:3
Режим частоты кадров : Постоянный
Частота кадров : 59,940 кадров/сек
Цветовое пространство : YUV
Субдискретизация насыщенности : 4:2:0
Битовая глубина : 8 бит
Тип развёртки : Прогрессивная
Бит/(Пиксели*Кадры) : 0.043
Размер потока : 1,42 Гбайт (94%)
Библиотека кодирования : x264 core 148 r2638 7599210
Настройки программы : cabac=1 / ref=8 / deblock=1:0:0 / analyse=0x3:0x113 / me=umh / subme=9 / psy=1 / psy_rd=1.00:0.10 / mixed_ref=1 / me_range=32 / chroma_me=1 / trellis=2 / 8x8dct=1 / cqm=0 / deadzone=21,11 / fast_pskip=0 / chroma_qp_offset=-3 / threads=6 / lookahead_threads=1 / sliced_threads=0 / nr=0 / decimate=1 / interlaced=0 / bluray_compat=0 / constrained_intra=0 / bframes=16 / b_pyramid=2 / b_adapt=2 / b_bias=0 / direct=3 / weightb=1 / open_gop=0 / weightp=2 / keyint=250 / keyint_min=25 / scenecut=40 / intra_refresh=0 / rc_lookahead=40 / rc=2pass / mbtree=1 / bitrate=4000 / ratetol=1.0 / qcomp=0.60 / qpmin=0 / qpmax=69 / qpstep=4 / cplxblur=20.0 / qblur=0.5 / vbv_maxrate=14000 / vbv_bufsize=14000 / nal_hrd=none / filler=0 / ip_ratio=1.40 / aq=1:1.00
Язык : English
Default : Да
Forced : Нет

Аудио
Идентификатор : 2
Формат : AC-3
Формат/Информация : Audio Coding 3
Коммерческое название : Dolby Digital
Идентификатор кодека : A_AC3
Продолжительность : 51 м. 17 с.
Вид битрейта : Постоянный
Битрейт : 256 Кбит/сек
Каналы : 6 каналов
Channel layout : L R C LFE Ls Rs
Частота : 48,0 КГц
Частота кадров : 31,250 кадров/сек (1536 SPF)
Метод сжатия : С потерями
Размер потока : 93,9 Мбайт (6%)
Заголовок : AVO Лурье (поверх англ. дубляжа!)
Язык : Russian
Service kind : Complete Main
Default : Да
Forced : Нет

Текст #1
Идентификатор : 3
Формат : ASS
Идентификатор кодека : S_TEXT/ASS
Идентификатор кодека/Информация : Advanced Sub Station Alpha
Продолжительность : 44 м. 39 с.
Битрейт : 103 бит/сек
Count of elements : 365
Метод сжатия : Без потерь
Размер потока : 33,8 Кбайт (0%)
Заголовок : RG Genshiken
Язык : Russian
Default : Да
Forced : Нет

Текст #2
Идентификатор : 4
Формат : ASS
Идентификатор кодека : S_TEXT/ASS
Идентификатор кодека/Информация : Advanced Sub Station Alpha
Продолжительность : 44 м. 21 с.
Битрейт : 61 бит/сек
Count of elements : 364
Метод сжатия : Без потерь
Размер потока : 20,1 Кбайт (0%)
Язык : English
Default : Нет
Forced : Нет

Меню
00:00:00.000 : en:00:00:00.000
00:02:57.511 : en:00:02:57.511
00:11:15.174 : en:00:11:15.174
00:17:47.858 : en:00:17:47.858
00:27:20.848 : en:00:27:20.848
00:34:05.043 : en:00:34:05.043
00:43:04.916 : en:00:43:04.916
00:47:17.460 : en:00:47:17.460

pb.wtf



Скачать Человек-дьявол: Пробуждение через торрент http://pic1.kartinco.top/images/12/svefw.jpg Скачать фильм Человек-дьявол: Пробуждение через торрент бесплантно в хорошем качестве Описание: Акира — ничем не примечательный подросток, живущий в современном Токио. Однако его размеренное существование нарушается с ... 5 10 1
Торрент: Зарегистрирован [2020-05-04 03:09] · скачан: 40 раз
Статус: √ проверено
Размер: 1.51 GB
Как cкачать? Как скачать Человек-дьявол: Пробуждение через торрент | qTorrent



Последний раз редактировалось: alien2015 (2020-05-05 07:43), всего редактировалось 17 раз(а)

28-11-2019 20:33  

Отключить всю рекламу на сайте

16-05-2020 10:17 Человек-дьявол: Пробуждение Скачать торрент  

Хороший релиз.Огромнное спасибоpb.wtf



    Дорогой пользователь! Огромная просьба, поблагодарите релизера, оцените раздачу и оставьте свои комментарий, если Вы скачали Человек-дьявол: Пробуждение через торрент бесплатно! Внесите свою лепту в развитие PiratBit!
    Комментировать посты могут только пользователи прошедшие не сложную регистрацию
    Показать сообщения:    

    Человек-дьявол: Пробуждение через торрент
    Скачать бесплатно Человек-дьявол: Пробуждение
    Человек-дьявол: Пробуждение скачать торрент
    Человек-дьявол: Пробуждение смотреть онлайн
    Cкачать фильм Человек-дьявол: Пробуждение бесплатно
    Человек-дьявол: Пробуждение скачать торрент в хорошем качестве
    Человек-дьявол: Пробуждение смотреть онлайн бесплатно в хорошем качестве


    Вы не можете начинать темы
    Вы не можете отвечать на сообщения
    Вы не можете редактировать свои сообщения
    Вы не можете удалять свои сообщения
    Вы не можете голосовать в опросах
    Вы не можете прикреплять файлы к сообщениям
    Вы можете скачивать файлы