Ссылка на приватное зеркало всего за 1$. Внимание количество ограничено!!!

iTunes

iTunes

iTunes

1

iTunes

iTunes

iTunes

iTunes

iTunes

30
pack

$ от Little Big

ВАЖНО

!!Акция!!

Alien_RageХит недели

RePack

Resident Evil 21

ИГРА 18+

pack

RePack

jed

!!Акция!!

Alien_Rage

RePack

fifa19

RePack

Assassins Creed: Odyssey

RePack

NEED FOR SPEED™ PAYBACK

4 сезон

9 сезон

Бесстыжие 9 сезон

Все сериалы

все сериалы на PB.wtf

RePack

FAR CRY 5
  

Человек-дьявол: Сирена, демоническая птица / Devilman - Evil Bird Siren / Debiruman: Kaichô shireinyu hen (Иида Цутому) [1990, фантастика, ужасы, эротика, BDRip 1080p, (60Fps)] VO [Лурье] pb.wtf

Человек-дьявол: Сирена, демоническая птица через торрент pb.wtf

Раздают: 4 [ 0 KB/s ]
Размер: 1.7 GB | Добавлен: 28 д. назад | Торрент скачан:43 раза
Скачать  

04-05-2020 03:19 Человек-дьявол: Сирена, демоническая птица Скачать торрент  

Человек-дьявол: Сирена, демоническая птица / Devilman - Evil Bird Siren / Debiruman: Kaichô shireinyu hen Год выпуска: 1990
Страна: Япония
Жанр: фантастика, ужасы, эротика
Продолжительность: 00:57:05
Перевод: Любительский одноголосый | Лурье
Субтитры: русские, английские

Режиссер: Иида Цутому

В ролях: Акира, Рюу, Мики

Описание: На этот раз, Акира, полностью подчинивший себе Амона и его дьявольские способности, успешно сражается с демонами всех мастей, чтобы защитить своих близких, а заодно и всё остальное человечество. Однако, каждый последующий враг сильнее предыдущего. Сумеет ли Человек-дьявол противостоять Сирене, свирепой демонессе, желающей уничтожить наглого выскочку и тем самым открыть остальным демонам дорогу к покорению мира?



Качество: BDRip 1080p / 60 FPS
Формат: MKV

Видео: x264, 1434x1078 ( 2,40:1 ), 4000 kbps, 59,940 fps, ( 0.043 bpp)
Аудио#1: Русский, AC-3, 48.0 KHz, 6 ch, 256 Kbps
скриншот   скриншот   скриншот   скриншот  

Общее
Уникальный идентификатор : 247830376967113777866827475245193684217 (0xBA7264F83FA8EF8FAE3C2F854F1AE4F9)
Полное имя : Z:\На заливку\Человек Дьявол. Сирена. Демоническая Птица BDRip.720p.(60Fps).mkv
Формат : Matroska
Версия формата : Version 4
Размер файла : 1,70 Гбайт
Продолжительность : 57 м. 4 с.
Общий поток : 4 257 Кбит/сек
Название фильма : Человек Дьявол. Сирена. Демоническая Птица BDRip.720p.(60Fps)
Дата кодирования : UTC 2020-05-03 06:42:01
Программа кодирования : mkvmerge v7.2.0 ('On Every Street') 64bit built on Sep 13 2014 15:52:10
Библиотека кодирования : libebml v1.3.0 + libmatroska v1.4.1
Attachments : a_Latino.ttf / DS VTCorona Cyr.ttf / Heinrich Text.ttf / NeutraText-LightAlt.otf / QuaySansMdITCTT.ttf / ufonts.com_gill-sans.ttf / ufonts.com_gillsans-italic.ttf

Видео
Идентификатор : 1
Формат : AVC
Формат/Информация : Advanced Video Codec
Профиль формата : High@L4.1
Настройки формата : CABAC / 8 Ref Frames
Параметр CABAC формата : Да
Параметр RefFrames формата : 8 кадров
Идентификатор кодека : V_MPEG4/ISO/AVC
Продолжительность : 57 м. 4 с.
Битрейт : 4 000 Кбит/сек
Ширина : 1 434 пикселей
Высота : 1 078 пикселей
Соотношение сторон : 4:3
Режим частоты кадров : Постоянный
Частота кадров : 59,940 кадров/сек
Цветовое пространство : YUV
Субдискретизация насыщенности : 4:2:0
Битовая глубина : 8 бит
Тип развёртки : Прогрессивная
Бит/(Пиксели*Кадры) : 0.043
Размер потока : 1,59 Гбайт (94%)
Библиотека кодирования : x264 core 148 r2638 7599210
Настройки программы : cabac=1 / ref=8 / deblock=1:0:0 / analyse=0x3:0x113 / me=umh / subme=9 / psy=1 / psy_rd=1.00:0.10 / mixed_ref=1 / me_range=32 / chroma_me=1 / trellis=2 / 8x8dct=1 / cqm=0 / deadzone=21,11 / fast_pskip=0 / chroma_qp_offset=-3 / threads=6 / lookahead_threads=1 / sliced_threads=0 / nr=0 / decimate=1 / interlaced=0 / bluray_compat=0 / constrained_intra=0 / bframes=16 / b_pyramid=2 / b_adapt=2 / b_bias=0 / direct=3 / weightb=1 / open_gop=0 / weightp=2 / keyint=250 / keyint_min=25 / scenecut=40 / intra_refresh=0 / rc_lookahead=40 / rc=2pass / mbtree=1 / bitrate=4000 / ratetol=1.0 / qcomp=0.60 / qpmin=0 / qpmax=69 / qpstep=4 / cplxblur=20.0 / qblur=0.5 / vbv_maxrate=14000 / vbv_bufsize=14000 / nal_hrd=none / filler=0 / ip_ratio=1.40 / aq=1:1.00
Язык : English
Default : Да
Forced : Нет

Аудио
Идентификатор : 2
Формат : AC-3
Формат/Информация : Audio Coding 3
Коммерческое название : Dolby Digital
Идентификатор кодека : A_AC3
Продолжительность : 56 м. 34 с.
Вид битрейта : Постоянный
Битрейт : 256 Кбит/сек
Каналы : 6 каналов
Channel layout : L R C LFE Ls Rs
Частота : 48,0 КГц
Частота кадров : 31,250 кадров/сек (1536 SPF)
Метод сжатия : С потерями
Размер потока : 104 Мбайт (6%)
Заголовок : AVO Лурье (поверх англ. дубляжа!)
Язык : Russian
Service kind : Complete Main
Default : Да
Forced : Нет

Текст #1
Идентификатор : 3
Формат : ASS
Идентификатор кодека : S_TEXT/ASS
Идентификатор кодека/Информация : Advanced Sub Station Alpha
Продолжительность : 53 м. 56 с.
Битрейт : 82 бит/сек
Count of elements : 359
Метод сжатия : Без потерь
Размер потока : 32,8 Кбайт (0%)
Заголовок : RG Genshiken
Язык : Russian
Default : Да
Forced : Нет

Текст #2
Идентификатор : 4
Формат : ASS
Идентификатор кодека : S_TEXT/ASS
Идентификатор кодека/Информация : Advanced Sub Station Alpha
Продолжительность : 53 м. 42 с.
Битрейт : 46 бит/сек
Count of elements : 359
Метод сжатия : Без потерь
Размер потока : 18,3 Кбайт (0%)
Язык : English
Default : Нет
Forced : Нет

Меню
00:00:00.000 : en:00:00:00.000
00:03:01.181 : en:00:03:01.181
00:14:50.807 : en:00:14:50.807
00:18:56.802 : en:00:18:56.802
00:23:28.741 : en:00:23:28.741
00:33:36.973 : en:00:33:36.973
00:37:21.823 : en:00:37:21.823
00:44:20.533 : en:00:44:20.533
00:48:02.630 : en:00:48:02.630
00:52:20.554 : en:00:52:20.554

pb.wtf



Скачать Человек-дьявол: Сирена, демоническая птица через торрент http://pic1.kartinco.top/images/12/qou68.jpg Скачать фильм Человек-дьявол: Сирена, демоническая птица через торрент бесплантно в хорошем качестве Описание: На этот раз, Акира, полностью подчинивший себе Амона и его дьявольские способности, успешно сражается с демонами всех мастей, ... 10 10 3
Торрент: Зарегистрирован [2020-05-04 03:19] · скачан: 43 раз
Статус: √ проверено
Размер: 1.7 GB
Как cкачать? Как скачать Человек-дьявол: Сирена, демоническая птица через торрент | qTorrent



Последний раз редактировалось: alien2015 (2020-05-04 05:13), всего редактировалось 4 раз(а)

28-11-2019 20:33  

Отключить всю рекламу на сайте

    Дорогой пользователь! Огромная просьба, поблагодарите релизера, оцените раздачу и оставьте свои комментарий, если Вы скачали Человек-дьявол: Сирена, демоническая птица через торрент бесплатно! Внесите свою лепту в развитие PiratBit!
    Комментировать посты могут только пользователи прошедшие не сложную регистрацию
    Показать сообщения:    

    Человек-дьявол: Сирена, демоническая птица через торрент
    Скачать бесплатно Человек-дьявол: Сирена, демоническая птица
    Человек-дьявол: Сирена, демоническая птица скачать торрент
    Человек-дьявол: Сирена, демоническая птица смотреть онлайн
    Cкачать фильм Человек-дьявол: Сирена, демоническая птица бесплатно
    Человек-дьявол: Сирена, демоническая птица скачать торрент в хорошем качестве
    Человек-дьявол: Сирена, демоническая птица смотреть онлайн бесплатно в хорошем качестве


    Вы не можете начинать темы
    Вы не можете отвечать на сообщения
    Вы не можете редактировать свои сообщения
    Вы не можете удалять свои сообщения
    Вы не можете голосовать в опросах
    Вы не можете прикреплять файлы к сообщениям
    Вы можете скачивать файлы