2 сезон

iTunes

MVO

1

2 сезон

iTunes

iTunes

1 сезон

RePack

30

Ultimate

ВАЖНО

ИГРА 18+

pack

RePack

MK11
pack

Легкие деньги

RePack

jed

RePack

fifa19

RePack

RDR2

RePack

NEED FOR SPEED™ PAYBACK

4 сезон

9 сезон

Бесстыжие 9 сезон

Все сериалы

все сериалы на PB.wtf

RePack

FAR CRY 5

Anonymous, добрый вечер, мы не успеваем собрать деньги на оплату серверов за декабрь и январь, помогите нам пожалуйста в это трудное время. В качестве благодарности мы отключим Вам всю рекламу на сайте (укажите свой ник в строку Ваше имя)!

×
  
Magnet ссылка

Враг государства / Enemy of the State (Тони Скотт) [1998, боевик, триллер, криминал, детектив, BDRip 720p / 60 FPS, Дубляж] pb.wtf

Враг государства через торрент pb.wtf

Размер: 3.87 GB | Добавлен: 8 мес. назад | Торрент скачан:78 раз
Скачать  

04-05-2020 03:28 Враг государства Скачать торрент  

Враг государства / Enemy of the State
Год выпуска: 1998
Страна: США
Жанр: боевик, триллер, криминал, детектив
Продолжительность: 02:12:11
Перевод: Дубляж
Субтитры: русские, английские

Режиссер: Тони Скотт

В ролях: Уилл Смит, Джин Хэкмен, Джон Войт, Лиза Боне, Реджина Кинг, Стюарт Уилсон, Лора Кайюэтт, Лорен Дин, Барри Пеппер, Иэн Харт

Описание: Каждое мгновение своей жизни человек находится на виду, даже когда он уверен, что его никто не видит. В руки преуспевающего адвоката Роберта Дина попала страшная улика, разоблачающая высокопоставленного чиновника. Но секретная служба узнала об этом раньше Роберта и немедленно приняла меры. В ход пошли самые новейшие технологии: в современном мире не нужно быть магом, чтобы изменить человеческую судьбу, — достаточно просто подойти к компьютеру. За считанные дни из законопослушного гражданина Дин превратился в опасного преступника, на которого была объявлена настоящая охота. Когда адвокат найдет союзников и передаст им таинственную улику, полетят многие головы… если до этого он не лишится своей

Качество: BDRip 720p / 60 FPS
Формат: MKV
Видео кодек: H.264
Аудио кодек: AC3
Видео: x264, 1280 x 542 ( 2,40:1 ), 4000 kbps, 59,940 fps, ( 0.097 bpp)
Аудио#1: AC-3, 48.0 KHz, 2 ch, 192 Kbps
rating
скриншот   скриншот   скриншот   скриншот  

Общее
Уникальный идентификатор : 247331663823705291556610911246087503448 (0xBA1258836BAC0EE28561B0E63A663E58)
Полное имя : Z:\На заливку\Враг Государства.1998.BDRip.720p.(60Fps).mkv
Формат : Matroska
Версия формата : Version 4
Размер файла : 3,87 Гбайт
Продолжительность : 2 ч. 12 м.
Общий поток : 4 191 Кбит/сек
Название фильма : Враг Государства.1998.BDRip.720p.(60Fps)
Дата кодирования : UTC 2020-05-03 17:48:13
Программа кодирования : mkvmerge v7.2.0 ('On Every Street') 64bit built on Sep 13 2014 15:52:10
Библиотека кодирования : libebml v1.3.0 + libmatroska v1.4.1

Видео
Идентификатор : 1
Формат : AVC
Формат/Информация : Advanced Video Codec
Профиль формата : High@L4.1
Настройки формата : CABAC / 8 Ref Frames
Параметр CABAC формата : Да
Параметр RefFrames формата : 8 кадров
Идентификатор кодека : V_MPEG4/ISO/AVC
Продолжительность : 2 ч. 12 м.
Битрейт : 4 000 Кбит/сек
Ширина : 1 280 пикселей
Высота : 542 пикселей
Соотношение сторон : 2,40:1
Режим частоты кадров : Постоянный
Частота кадров : 59,940 кадров/сек
Цветовое пространство : YUV
Субдискретизация насыщенности : 4:2:0
Битовая глубина : 8 бит
Тип развёртки : Прогрессивная
Бит/(Пиксели*Кадры) : 0.097
Размер потока : 3,69 Гбайт (95%)
Библиотека кодирования : x264 core 146 r2538 121396c
Настройки программы : cabac=1 / ref=8 / deblock=1:0:0 / analyse=0x3:0x113 / me=umh / subme=9 / psy=1 / psy_rd=1.00:0.10 / mixed_ref=1 / me_range=32 / chroma_me=1 / trellis=2 / 8x8dct=1 / cqm=0 / deadzone=21,11 / fast_pskip=0 / chroma_qp_offset=-3 / threads=6 / lookahead_threads=1 / sliced_threads=0 / nr=0 / decimate=1 / interlaced=0 / bluray_compat=0 / constrained_intra=0 / bframes=16 / b_pyramid=2 / b_adapt=2 / b_bias=0 / direct=3 / weightb=1 / open_gop=0 / weightp=2 / keyint=250 / keyint_min=25 / scenecut=40 / intra_refresh=0 / rc_lookahead=40 / rc=2pass / mbtree=1 / bitrate=4000 / ratetol=1.0 / qcomp=0.60 / qpmin=0 / qpmax=69 / qpstep=4 / cplxblur=20.0 / qblur=0.5 / vbv_maxrate=14000 / vbv_bufsize=14000 / nal_hrd=none / filler=0 / ip_ratio=1.40 / aq=1:1.00
Язык : English
Default : Да
Forced : Нет

Аудио
Идентификатор : 2
Формат : AC-3
Формат/Информация : Audio Coding 3
Коммерческое название : Dolby Digital
Идентификатор кодека : A_AC3
Продолжительность : 2 ч. 12 м.
Вид битрейта : Постоянный
Битрейт : 192 Кбит/сек
Каналы : 2 канала
Channel layout : L R
Частота : 48,0 КГц
Частота кадров : 31,250 кадров/сек (1536 SPF)
Метод сжатия : С потерями
Размер потока : 181 Мбайт (5%)
Заголовок : Dub
Язык : Russian
Service kind : Complete Main
Default : Да
Forced : Нет

Текст #1
Идентификатор : 3
Формат : UTF-8
Идентификатор кодека : S_TEXT/UTF8
Идентификатор кодека/Информация : UTF-8 Plain Text
Продолжительность : 2 ч. 5 м.
Битрейт : 113 бит/сек
Count of elements : 1625
Размер потока : 105 Кбайт (0%)
Язык : Russian
Default : Нет
Forced : Нет

Текст #2
Идентификатор : 4
Формат : UTF-8
Идентификатор кодека : S_TEXT/UTF8
Идентификатор кодека/Информация : UTF-8 Plain Text
Продолжительность : 2 ч. 5 м.
Битрейт : 81 бит/сек
Count of elements : 1528
Размер потока : 75,5 Кбайт (0%)
Язык : English
Default : Нет
Forced : Нет

Меню
00:00:00.000 : :Program Start
00:03:04.456 : :Eliminating the Opposition
00:06:06.514 : :Opening Credits
00:10:45.891 : :Taking On the Mob
00:15:57.835 : :A Visit With Pintero
00:21:28.787 : :A Problem at the Lake
00:26:23.873 : :Zavitz's Tape
00:32:01.711 : :Rabbit On the Run
00:37:03.583 : :Dean's People
00:42:14.823 : :Unexpected Visitors
00:47:29.721 : :Getting Into Dean's Life
00:52:33.150 : :Dean's Life in Shambles
00:57:51.176 : :Conversation With Rachel
01:03:34.227 : :A Rough Cab Ride
01:08:43.399 : :Brill
01:13:52.553 : :Moving Target
01:19:07.451 : :Tunnel Vision
01:24:09.836 : :The Jar
01:29:47.673 : :Time Bomb
01:34:55.272 : :Edward Lyle
01:40:06.000 : :Turning the Tables
01:45:24.026 : :A Call From Brill
01:50:32.667 : :"Let the Games Begin"
01:56:37.615 : :Getting the Tape Back
02:01:49.385 : :Dean's Plan
02:07:02.666 : :Wrap-Up
02:12:09.796 : :End Credits

pb.wtf



Скачать Враг государства через торрент http://pic1.kartinco.top/images/12/nferh.jpg Скачать фильм Враг государства через торрент бесплантно в хорошем качестве Описание: Каждое мгновение своей жизни человек находится на виду, даже когда он уверен, что его никто не видит. В руки преуспевающего ... 10 10 5
Торрент: Зарегистрирован [2020-05-04 03:28] · скачан: 78 раз
Статус: √ проверено
Размер: 3.87 GB
Как cкачать? Как скачать Враг государства через торрент | UTorrent

% Раздел Тема Автор DL S | L
Фильмы [HD 720p, 1080p] (Хороший звук DUB, MVO) [ 14.38 GB ] Враг государства / Enemy of the State [1998 BDRip-HEVC 1080p] 2хDUB + 6хMVO + 4xAVO RealOldGamer Скачать
6 | 0
Фильмы [HD 720p, 1080p] (Хороший звук DUB, MVO) [ 5.24 GB ] Враг государства / Enemy of the State [1998 BDRip 1080p HEVC +MVO] Мичман37 Скачать
2 | 0
Фильмы (Blu-ray, BD-Remux, HDDVD) [ 26.3 GB ] Враг государства / Enemy of the State [1998 Blu-Ray Remux] DUB+MVO Ворон Скачать
1 | 0
Фильмы до 2000 г. [ 2.18 GB ] Враг государства / Enemy of the State [1998 BDRip] killermax2013 Скачать
1 | 0
Фильмы [HD 720p, 1080p] (Хороший звук DUB, MVO) [ 7.76 GB ] Враг государства / Enemy of the State [1998г BDRip MVO DUB] GEKADOL Скачать
1 | 0
Фильмы до 2000 г. [ 2.19 GB ] Враг государства / Enemy of the State [1998 DVDRip] [Полная версия / Unrated Extended Edition] [AVO] killermax2013 Скачать
1 | 0
Фильмы (DVD фильмы) [ 4.36 GB ] Враг государства / Enemy of the state [1998 DVD5 DUB + Оригинал] ValeraTerechenko Скачать
1 | 0


Последний раз редактировалось: alien2015 (2020-05-07 10:46), всего редактировалось 3 раз(а)

28-11-2019 20:33  

Отключить всю рекламу на сайте

    Дорогой пользователь! Огромная просьба, поблагодарите релизера, оцените раздачу и оставьте свои комментарий, если Вы скачали Враг государства через торрент бесплатно! Внесите свою лепту в развитие PiratBit!
    Комментировать посты могут только пользователи прошедшие не сложную регистрацию
    Показать сообщения:    

    Враг государства через торрент
    Скачать бесплатно Враг государства
    Враг государства скачать торрент
    Враг государства смотреть онлайн
    Cкачать фильм Враг государства бесплатно
    Враг государства скачать торрент в хорошем качестве
    Враг государства смотреть онлайн бесплатно в хорошем качестве


    Вы не можете начинать темы
    Вы не можете отвечать на сообщения
    Вы не можете редактировать свои сообщения
    Вы не можете удалять свои сообщения
    Вы не можете голосовать в опросах
    Вы не можете прикреплять файлы к сообщениям
    Вы можете скачивать файлы