Достать ножи: Стеклянная луковица

MVO

Добыча

Дубляж

Уэнсдэй

1 сезон

Тор

Дубляж

13 клиническая

1 сезон

Жестокая ночь

MVO

Одни из нас

1 сезон

Deluxe

pack

Рекомендуем

30

Пиратка

ВАЖНО

ВАЖНО

Ghostwire

Пиратка

jed

RePack

nioh2

RePack

RDR2

RePack

NEED FOR SPEED™ PAYBACK

RePack

скачать торрент

Кинопоиск HD

Острые козырьки 6 сезон

6 сезон

FAR CRY 6

RePack

скачать торрент

Лицензия

скачать торрент

MVO

1

1 сезон

скачать торрент

1 сезон

скачать торрент

Лицензия

  

Доберман / Dobermann (Жан Кунен) [1997 г., боевик, криминал, драма, BDRip 720p / 60 FPS,] AVO [Сербин]

Доберман через торрент pb.wtf

Раздают: 2 [ 0 KB/s ] Качают: 1 [ 0 KB/s ]
Размер: 2.63 GB | Добавлен: 3 д. назад | Торрент скачан:39 раз
Смотреть онлайн | Скачать | Поддержите нас   

04-05-2020 03:49 Доберман Скачать торрент  

Доберман / Dobermann
Год выпуска: 1997
Страна: Франция
Жанр: боевик, криминал, драма
Продолжительность: 01:43:07
Перевод: Авторский (одноголосый, закадровый) Ю. Сербин
Субтитры: русские, французские, английские

Режиссер: Жан Кунен

В ролях: Венсан Кассель (Yann 'Dobermann' Le Pentrec), Моника Беллуччи (Nathalie), Чеки Карио (Inspecteur Sauveur Cristini), Антуан Баслер (Jean-Claude 'Moustique' Ayache), Доминик Беттенфельд (Elie 'l'abbe' Frossard), Ромэн Дюри (Manu), Чик Ортега (Jacky 'Pitbull' Sueur), Стефан Мецгер (Olivier Brachet, dit Sonia), Франсуа Леванталь (Leo)

Описание: Герою фильма уже в день крестин один из друзей отца дарит Магнум-357. Мальчик вырос и стал супернаглым и дерзким грабителем по кличке Доберман. Магнум-357 заменили самые современные виды огнестрельного оружия, включая даже небольшие ракеты, которыми можно стрелять, навинчивая их на ствол пистолета.
Вместе с ним всегда его глухая подруга, спокойно красящая ногти во время ограбления инкассаторов. Остальные члены банды — тоже еще те типажи! Ловит же его жестокий полицейский, рядом с которым Грязный Гарри — просто бойскаут. Он одержимо хочет поймать или убить Добермана и для достижения своей цели готов пойти на все и даже преступить закон.

Качество: BDRip 720p / 60 FPS
Формат: MKV
Видео кодек: H.264
Аудио кодек: AC3
Видео: x264, 1280 x 544 ( 2,35:1 ), 4000 kbps, 60,000 fps, ( 0.096 bpp)
Аудио#1: Русский, DTS, 48.0 KHz, 6 ch, 755 Kbps
скриншот   скриншот   скриншот   скриншот  

Общее
Уникальный идентификатор : 212497414689144828945344752079508321202 (0x9FDD836E8A758F7E972FE96E004FB3B2)
Полное имя : Z:\На заливку\Доберман.1997.BDRip.720p.(60Fps).mkv
Формат : Matroska
Версия формата : Version 4
Размер файла : 3,43 Гбайт
Продолжительность : 1 ч. 43 м.
Общий поток : 4 759 Кбит/сек
Название фильма : Доберман.1997.BDRip.720p.(60Fps)
Дата кодирования : UTC 2020-05-03 06:43:02
Программа кодирования : mkvmerge v7.2.0 ('On Every Street') 64bit built on Sep 13 2014 15:52:10
Библиотека кодирования : libebml v1.3.0 + libmatroska v1.4.1

Видео
Идентификатор : 1
Формат : AVC
Формат/Информация : Advanced Video Codec
Профиль формата : [email protected]
Настройки формата : CABAC / 8 Ref Frames
Параметр CABAC формата : Да
Параметр RefFrames формата : 8 кадров
Идентификатор кодека : V_MPEG4/ISO/AVC
Продолжительность : 1 ч. 43 м.
Битрейт : 4 000 Кбит/сек
Ширина : 1 280 пикселей
Высота : 544 пикселя
Соотношение сторон : 2,35:1
Режим частоты кадров : Постоянный
Частота кадров : 60,000 кадров/сек
Цветовое пространство : YUV
Субдискретизация насыщенности : 4:2:0
Битовая глубина : 8 бит
Тип развёртки : Прогрессивная
Бит/(Пиксели*Кадры) : 0.096
Размер потока : 2,88 Гбайт (84%)
Библиотека кодирования : x264 core 148 r2638 7599210
Настройки программы : cabac=1 / ref=8 / deblock=1:0:0 / analyse=0x3:0x113 / me=umh / subme=9 / psy=1 / psy_rd=1.00:0.10 / mixed_ref=1 / me_range=32 / chroma_me=1 / trellis=2 / 8x8dct=1 / cqm=0 / deadzone=21,11 / fast_pskip=0 / chroma_qp_offset=-3 / threads=6 / lookahead_threads=1 / sliced_threads=0 / nr=0 / decimate=1 / interlaced=0 / bluray_compat=0 / constrained_intra=0 / bframes=16 / b_pyramid=2 / b_adapt=2 / b_bias=0 / direct=3 / weightb=1 / open_gop=0 / weightp=2 / keyint=250 / keyint_min=25 / scenecut=40 / intra_refresh=0 / rc_lookahead=40 / rc=2pass / mbtree=1 / bitrate=4000 / ratetol=1.0 / qcomp=0.60 / qpmin=0 / qpmax=69 / qpstep=4 / cplxblur=20.0 / qblur=0.5 / vbv_maxrate=14000 / vbv_bufsize=14000 / nal_hrd=none / filler=0 / ip_ratio=1.40 / aq=1:1.00
Язык : English
Default : Да
Forced : Нет

Аудио
Идентификатор : 2
Формат : DTS
Формат/Информация : Digital Theater Systems
Идентификатор кодека : A_DTS
Продолжительность : 1 ч. 43 м.
Вид битрейта : Постоянный
Битрейт : 755 Кбит/сек
Каналы : 6 каналов
Channel layout : C L R Ls Rs LFE
Частота : 48,0 КГц
Частота кадров : 93,750 кадра/сек (512 SPF)
Битовая глубина : 24 бит
Метод сжатия : С потерями
Размер потока : 556 Мбайт (16%)
Заголовок : [AVO] DTS 5.1 ch 768kbps [Serbin]
Язык : Russian
Default : Нет
Forced : Нет

Текст #1
Идентификатор : 3
Формат : UTF-8
Идентификатор кодека : S_TEXT/UTF8
Идентификатор кодека/Информация : UTF-8 Plain Text
Продолжительность : 1 ч. 36 м.
Битрейт : 64 бит/сек
Count of elements : 973
Размер потока : 45,6 Кбайт (0%)
Язык : Russian
Default : Нет
Forced : Нет

Текст #2
Идентификатор : 4
Формат : UTF-8
Идентификатор кодека : S_TEXT/UTF8
Идентификатор кодека/Информация : UTF-8 Plain Text
Продолжительность : 1 ч. 42 м.
Битрейт : 41 бит/сек
Count of elements : 1125
Размер потока : 31,0 Кбайт (0%)
Язык : French
Default : Нет
Forced : Нет

Текст #3
Идентификатор : 5
Формат : UTF-8
Идентификатор кодека : S_TEXT/UTF8
Идентификатор кодека/Информация : UTF-8 Plain Text
Продолжительность : 1 ч. 34 м.
Битрейт : 34 бит/сек
Count of elements : 1021
Размер потока : 23,9 Кбайт (0%)
Язык : English
Default : Нет
Forced : Нет




Скачать Доберман через торрент https://pic1.kartinco.top/images/12/ebxge.jpg Скачать, смотреть онлайн Доберман бесплантно в хорошем качестве Описание: Герою фильма уже в день крестин один из друзей отца дарит Магнум-35 Мальчик вырос и стал супернаглым и дерзким грабителем по ... 10 10 4
Торрент: Зарегистрирован [2023-01-23 09:55] · скачан: 39 раз
Статус: ? недооформлено
Размер: 2.63 GB
Как cкачать? Как скачать Доберман через торрент | UTorrent




Последний раз редактировалось: alien2015 (2023-01-23 09:55), всего редактировалось 12 раз(а)

28-11-2019 20:33  


Отключить вcю реклaмy на сайте, в т.ч. и в плеере онлайн просмотра!

12-05-2020 15:31 Доберман Скачать торрент  

1080p с оригинальной дорожкой и этими же субтитрами - было бы здорово.



23-01-2023 15:51 Доберман Скачать торрент  

Культовый фильм..... 10 из 10



25-01-2023 14:34 Доберман Скачать торрент  

Хит 90-х



    Дорогой пользователь! Огромная просьба, поблагодарите релизера, оцените раздачу и оставьте свои комментарий, если Вы скачали Доберман через торрент бесплатно!!
    Комментировать посты могут только пользователи прошедшие не сложную регистрацию
    Показать сообщения:    


    Доберман через торрент
    Скачать бесплатно Доберман
    Доберман скачать торрент
    Доберман смотреть онлайн
    Cкачать фильм Доберман бесплатно
    Доберман скачать торрент в хорошем качестве
    Доберман смотреть онлайн бесплатно в хорошем качестве
    Вы не можете начинать темы
    Вы не можете отвечать на сообщения
    Вы не можете редактировать свои сообщения
    Вы не можете удалять свои сообщения
    Вы не можете голосовать в опросах
    Вы не можете прикреплять файлы к сообщениям
    Вы можете скачивать файлы
    Доберман / Dobermann [1997 г., боевик, криминал, драма, BDRip 720p / 60 FPS,] AVO [Сербин] смотреть онлайн, скачать торрент picoco.icu