Ссылка на приватное зеркало нашего сайта всего за 1$. Внимание количество ограничено!!!

2 сезон

iTunes

1 сезон

1

iTunes

iTunes

iTunes

1 сезон

RePack

30

ИГРА 18+

pack

ВАЖНО

!!Акция!!

Alien_RageХит недели

RePack

MK11
pack

Забери бонус

RePack

jed

!!Акция!!

Alien_Rage

RePack

fifa19

RePack

Assassins Creed: Odyssey

RePack

NEED FOR SPEED™ PAYBACK

4 сезон

9 сезон

Бесстыжие 9 сезон

Все сериалы

все сериалы на PB.wtf

RePack

FAR CRY 5
  

Грабители поездов / The Train Robbers (Берт Кеннеди) [1973, Вестерн, BDRip 720p] DUB [Варус Видео] от ExKinoRay pb.wtf

Грабители поездов через торрент pb.wtf

Размер: 4.74 GB | Добавлен: 5 мес. 19 д. назад | Торрент скачан:7 раз
Скачать  

05-05-2020 12:25 Грабители поездов Скачать торрент  

Грабители поездов / The Train Robbers
Год выпуска: 1973
Страна: США
Жанр: Вестерн
Продолжительность: 01:31:53
Перевод: Дубляж (Варус Видео)
Субтитры: Английские

Режиссер: Берт Кеннеди

Премьера в мире: 7 февраля 1973

rating

В ролях: Джон Уэйн, Энн-Маргрет, Род Тейлор, Бен Джонсон, Кристофер Джордж, Бобби Винтон, Джерри Гэтлин, Рикардо Монтальбан

Описание: Три ветерана Гражданской войны объединяются в одну команду с вдовой грабителя поездов, чтобы отыскать спрятанную добычу размером в полмиллиона долларов. Обаятельная вдова, у которой «все на месте», хочет вернуть доброе имя своему покойному мужу.
Трое друзей хотят помочь ей и получить награду в $ 5O 000. Но сообщники покойного хотят получить все золото, если потребуется — они не раздумывая расправятся с дамой и ее спутниками

Качество: BDRip 720p
Формат: MKV
Видео кодек: MPEG4
Аудио кодек: AC3
Видео: 7000 Кбит/с, 1280x534, 23.976 кадра/сек
Аудио#1: Русский (AC3, 2 ch, 192 Кбит/с, 48 КГц)
Аудио#2: Английский (AC3, 1 ch, 192 Кбит/с, 48 КГц)
Релиз от:
x264 [info]: profile High, level 4.1
x264 [info]: frame I:945 Avg QP:15.96 size:146292
x264 [info]: frame P:26252 Avg QP:18.88 size: 65736
x264 [info]: frame B:104995 Avg QP:20.11 size: 28198
-----
Общее
Уникальный идентификатор : 178209750393180050550693899456282986182 (0x8611F3103AE0D6B7AB4B95A701AD86C6)
Полное имя : D:\ExKinoRay\Train.Robbers.1973.BDRip720p.ExKinoRay.mkv
Формат : Matroska
Версия формата : Version 2
Размер файла : 4,74 Гбайт
Продолжительность : 1 ч. 31 м.
Общий поток : 7385 Кбит/сек
Дата кодирования : UTC 2020-05-05 11:00:05
Программа кодирования : mkvmerge v7.8.0 ('River Man') 32bit built on Apr 3 2015 12:11:22
Библиотека кодирования : libebml v1.3.1 + libmatroska v1.4.2

Видео
Идентификатор : 1
Формат : AVC
Формат/Информация : Advanced Video Codec
Профиль формата : High@L4.1
Настройки формата : CABAC / 12 Ref Frames
Параметр CABAC формата : Да
Параметр RefFrames формата : 12 кадров
Идентификатор кодека : V_MPEG4/ISO/AVC
Продолжительность : 1 ч. 31 м.
Битрейт : 7000 Кбит/сек
Ширина : 1280 пикселей
Высота : 534 пикселя
Соотношение сторон : 2,40:1
Режим частоты кадров : Постоянный
Частота кадров : 23,976 (24000/1001) кадра/сек
Цветовое пространство : YUV
Субдискретизация насыщенности : 4:2:0
Битовая глубина : 8 бит
Тип развёртки : Прогрессивная
Бит/(Пиксели*Кадры) : 0.427
Размер потока : 4,40 Гбайт (93%)
Библиотека кодирования : x264 core 152 r2851 ba24899
Настройки программы : cabac=1 / ref=12 / deblock=1:-3:-2 / analyse=0x3:0x113 / me=umh / subme=10 / psy=1 / psy_rd=1.00:0.10 / mixed_ref=1 / me_range=32 / chroma_me=1 / trellis=2 / 8x8dct=1 / cqm=0 / deadzone=21,11 / fast_pskip=0 / chroma_qp_offset=-3 / threads=6 / lookahead_threads=1 / sliced_threads=0 / nr=0 / decimate=0 / interlaced=0 / bluray_compat=0 / constrained_intra=0 / bframes=12 / b_pyramid=2 / b_adapt=2 / b_bias=0 / direct=3 / weightb=1 / open_gop=0 / weightp=2 / keyint=240 / keyint_min=23 / scenecut=40 / intra_refresh=0 / rc=2pass / mbtree=0 / bitrate=7000 / ratetol=1.0 / qcomp=0.60 / qpmin=0 / qpmax=69 / qpstep=4 / cplxblur=20.0 / qblur=0.5 / ip_ratio=1.40 / pb_ratio=1.30 / aq=3:1.00
Язык : English
Default : Да
Forced : Нет
Цветовой диапазон : Limited
Основные цвета : BT.709
Характеристики трансфера : BT.709
Коэффициенты матрицы : BT.709

Аудио #1
Идентификатор : 2
Формат : AC-3
Формат/Информация : Audio Coding 3
Коммерческое название : Dolby Digital
Идентификатор кодека : A_AC3
Продолжительность : 1 ч. 31 м.
Вид битрейта : Постоянный
Битрейт : 192 Кбит/сек
Каналы : 2 канала
Channel layout : L R
Частота : 48,0 КГц
Частота кадров : 31,250 кадров/сек (1536 SPF)
Битовая глубина : 16 бит
Метод сжатия : С потерями
Размер потока : 126 Мбайт (3%)
Язык : Russian
ServiceKind/String : Complete Main
Default : Да
Forced : Нет

Аудио #2
Идентификатор : 3
Формат : AC-3
Формат/Информация : Audio Coding 3
Коммерческое название : Dolby Digital
Идентификатор кодека : A_AC3
Продолжительность : 1 ч. 31 м.
Вид битрейта : Постоянный
Битрейт : 192 Кбит/сек
Каналы : 1 канал
Channel layout : C
Частота : 48,0 КГц
Частота кадров : 31,250 кадров/сек (1536 SPF)
Битовая глубина : 16 бит
Метод сжатия : С потерями
Размер потока : 126 Мбайт (3%)
Язык : English
ServiceKind/String : Complete Main
Default : Нет
Forced : Нет

Текст
Идентификатор : 4
Формат : UTF-8
Идентификатор кодека : S_TEXT/UTF8
Идентификатор кодека/Информация : UTF-8 Plain Text
Заголовок : SDH
Язык : English
Default : Нет
Forced : Нет

Меню
00:00:00.000 : en:
00:10:38.511 : en:
00:19:24.955 : en:
00:29:08.997 : en:
00:39:38.083 : en:
00:50:23.311 : en:
01:00:26.205 : en:
01:09:58.944 : en:
01:20:06.676 : en:
01:31:15.470 : en:
01:31:53.216 : en:

pb.wtf



Скачать Грабители поездов через торрент http://c.radikal.ru/c15/2005/d7/5aca02717c29.jpg Скачать фильм Грабители поездов через торрент бесплантно в хорошем качестве Описание: Три ветерана Гражданской войны объединяются в одну команду с вдовой грабителя поездов, чтобы отыскать спрятанную добычу размером ... 9 10 1
Info! Золотая раздача, скачанное не засчитывается.
Торрент: Зарегистрирован [2020-05-05 12:25] · скачан: 7 раз
Статус: √ проверено
Размер: 4.74 GB
Как cкачать? Как скачать Грабители поездов через торрент | qTorrent

28-11-2019 20:33  

Отключить всю рекламу на сайте

    Дорогой пользователь! Огромная просьба, поблагодарите релизера, оцените раздачу и оставьте свои комментарий, если Вы скачали Грабители поездов через торрент бесплатно! Внесите свою лепту в развитие PiratBit!
    Комментировать посты могут только пользователи прошедшие не сложную регистрацию
    Показать сообщения:    

    Грабители поездов через торрент
    Скачать бесплатно Грабители поездов
    Грабители поездов скачать торрент
    Грабители поездов смотреть онлайн
    Cкачать фильм Грабители поездов бесплатно
    Грабители поездов скачать торрент в хорошем качестве
    Грабители поездов смотреть онлайн бесплатно в хорошем качестве


    Вы не можете начинать темы
    Вы не можете отвечать на сообщения
    Вы не можете редактировать свои сообщения
    Вы не можете удалять свои сообщения
    Вы не можете голосовать в опросах
    Вы не можете прикреплять файлы к сообщениям
    Вы можете скачивать файлы